Links Vip MCHD

Contenido privado

Todo aporte con enlaces de GDrive que pida permiso para descargar, se perdió, debido a que Google baneó múltiples cuentas, por lo tanto esos archivos están inaccesibles para descargar

Todos los enlaces rar son intercambiables

Problemas de contraseña o archivo dañado? repara siguiendo esta guía

Nadie (2021)

Format : Matroska
Format version : Version 4
File size : 20.9 GiB
Duration : 1 h 31 min
Overall bit rate mode : Variable
Overall bit rate : 32.6 Mb/s
Movie name : Nobody
Encoded date : UTC 2021-07-09 19:46:53
Writing application : mkvmerge v56.1.0 ('My Friend') 64-bit
Writing library : libebml v1.4.2 + libmatroska v1.6.4

Video
ID : 1
ID in the original source m : 4113 (0x1011)
Format : AVC
Format/Info : Advanced Video Codec
Format profile : High@L4.1
Format settings : CABAC / 4 Ref Frames
Format settings, CABAC : Yes
Format settings, Reference : 4 frames
Codec ID : V_MPEG4/ISO/AVC
Duration : 1 h 31 min
Bit rate mode : Variable
Bit rate : 28.2 Mb/s
Maximum bit rate : 30.0 Mb/s
Width : 1 920 pixels
Height : 1 080 pixels
Display aspect ratio : 16:9
Frame rate mode : Constant
Frame rate : 23.976 (24000/1001) FPS
Color space : YUV
Chroma subsampling : 4:2:0
Bit depth : 8 bits
Scan type : Progressive
Bits/(Pixel*Frame) : 0.566
Stream size : 18.0 GiB (86%)
Language : English
Default : No
Forced : No
Original source medium : Blu-ray

Audio #1
ID : 2
Format : E-AC-3
Format/Info : Enhanced AC-3
Commercial name : Dolby Digital Plus
Format profile : Blu-ray Disc
Codec ID : A_EAC3
Duration : 1 h 31 min
Bit rate mode : Constant
Bit rate : 768 kb/s
Channel(s) : 8 channels
Channel layout : L R C LFE Ls Rs Lb Rb
Sampling rate : 48.0 kHz
Frame rate : 31.250 FPS (1536 SPF)
Compression mode : Lossy
Stream size : 504 MiB (2%)
Title : Latino WEB [eac3 7.1]
Language : Spanish
Service kind : Complete Main
Default : Yes
Forced : No

Audio #2
ID : 3
ID in the original source m : 4356 (0x1104)
Format : AC-3
Format/Info : Audio Coding 3
Commercial name : Dolby Digital
Codec ID : A_AC3
Duration : 1 h 31 min
Bit rate mode : Constant
Bit rate : 448 kb/s
Channel(s) : 6 channels
Channel layout : L R C LFE Ls Rs
Sampling rate : 48.0 kHz
Frame rate : 31.250 FPS (1536 SPF)
Compression mode : Lossy
Stream size : 294 MiB (1%)
Title : Latino BD [ac3 5.1]
Language : Spanish
Service kind : Complete Main
Default : No
Forced : No
Original source medium : Blu-ray

Audio #3
ID : 4
ID in the original source m : 4352 (0x1100)
Format : MLP FBA 16-ch
Format/Info : Meridian Lossless Packing FBA with 16-channel presentation
Commercial name : Dolby TrueHD with Dolby Atmos
Codec ID : A_TRUEHD
Duration : 1 h 31 min
Bit rate mode : Variable
Bit rate : 2 697 kb/s
Maximum bit rate : 4 788 kb/s
Channel(s) : 8 channels
Channel layout : L R C LFE Ls Rs Lb Rb
Sampling rate : 48.0 kHz
Frame rate : 1 200.000 FPS (40 SPF)
Bit depth : 24 bits
Compression mode : Lossless
Stream size : 1.73 GiB (8%)
Title : Ingles [TRU HD ATMOS 7.1]
Language : English
Default : No
Forced : No
Original source medium : Blu-ray
Number of dynamic objects : 11
Bed channel count : 1 channel
Bed channel configuration : LFE

Audio #4
ID : 5
ID in the original source m : 4352 (0x1100)
Format : AC-3
Format/Info : Audio Coding 3
Commercial name : Dolby Digital
Codec ID : A_AC3
Duration : 1 h 31 min
Bit rate mode : Constant
Bit rate : 448 kb/s
Channel(s) : 6 channels
Channel layout : L R C LFE Ls Rs
Sampling rate : 48.0 kHz
Frame rate : 31.250 FPS (1536 SPF)
Compression mode : Lossy
Stream size : 294 MiB (1%)
Title : Ingles [ac3 5.1]
Language : English
Service kind : Complete Main
Default : No
Forced : No
Original source medium : Blu-ray

Text #1
ID : 6
Format : UTF-8
Codec ID : S_TEXT/UTF8
Codec ID/Info : UTF-8 Plain Text
Duration : 1 h 30 min
Bit rate : 11 b/s
Count of elements : 260
Stream size : 7.61 KiB (0%)
Title : Castellano Forzados [srt]
Language : Spanish
Default : Yes
Forced : No

Text #2
ID : 7
Format : UTF-8
Codec ID : S_TEXT/UTF8
Codec ID/Info : UTF-8 Plain Text
Duration : 1 h 30 min
Bit rate : 2 b/s
Count of elements : 88
Stream size : 1.92 KiB (0%)
Title : Latino Forzados [srt]
Language : Spanish
Default : No
Forced : No

Text #3
ID : 8
Format : UTF-8
Codec ID : S_TEXT/UTF8
Codec ID/Info : UTF-8 Plain Text
Duration : 1 h 30 min
Bit rate : 31 b/s
Count of elements : 786
Stream size : 21.0 KiB (0%)
Title : Latino Completos [srt]
Language : Spanish
Default : No
Forced : No

Text #4
ID : 9
ID in the original source m : 4611 (0x1203)
Format : PGS
Muxing mode : zlib
Codec ID : S_HDMV/PGS
Codec ID/Info : Picture based subtitle format used on BDs/HD-DVDs
Duration : 1 h 30 min
Bit rate : 24.1 kb/s
Count of elements : 1874
Stream size : 15.5 MiB (0%)
Language : Spanish
Default : No
Forced : No
Original source medium : Blu-ray

Text #5
ID : 10
ID in the original source m : 4612 (0x1204)
Format : PGS
Muxing mode : zlib
Codec ID : S_HDMV/PGS
Codec ID/Info : Picture based subtitle format used on BDs/HD-DVDs
Duration : 1 h 30 min
Bit rate : 19.8 kb/s
Count of elements : 1572
Stream size : 12.8 MiB (0%)
Language : Spanish
Default : No
Forced : No
Original source medium : Blu-ray

Text #6
ID : 11
ID in the original source m : 4623 (0x120F)
Format : PGS
Muxing mode : zlib
Codec ID : S_HDMV/PGS
Codec ID/Info : Picture based subtitle format used on BDs/HD-DVDs
Duration : 1 h 31 min
Bit rate : 65.4 kb/s
Count of elements : 3231
Stream size : 42.8 MiB (0%)
Language : Spanish
Default : No
Forced : No
Original source medium : Blu-ray

Text #7
ID : 12
ID in the original source m : 4627 (0x1213)
Format : PGS
Muxing mode : zlib
Codec ID : S_HDMV/PGS
Codec ID/Info : Picture based subtitle format used on BDs/HD-DVDs
Duration : 1 h 31 min
Bit rate : 66.1 kb/s
Count of elements : 3302
Stream size : 43.2 MiB (0%)
Language : Spanish
Default : No
Forced : No
Original source medium : Blu-ray

Text #8
ID : 13
ID in the original source m : 4631 (0x1217)
Format : PGS
Muxing mode : zlib
Codec ID : S_HDMV/PGS
Codec ID/Info : Picture based subtitle format used on BDs/HD-DVDs
Duration : 1 h 30 min
Bit rate : 6 808 b/s
Count of elements : 520
Stream size : 4.39 MiB (0%)
Language : Spanish
Default : No
Forced : No
Original source medium : Blu-ray

Text #9
ID : 14
ID in the original source m : 4632 (0x1218)
Format : PGS
Muxing mode : zlib
Codec ID : S_HDMV/PGS
Codec ID/Info : Picture based subtitle format used on BDs/HD-DVDs
Duration : 1 h 30 min
Bit rate : 2 001 b/s
Count of elements : 176
Stream size : 1.29 MiB (0%)
Language : Spanish
Default : No
Forced : No
Original source medium : Blu-ray

Text #10
ID : 15
ID in the original source m : 4608 (0x1200)
Format : PGS
Muxing mode : zlib
Codec ID : S_HDMV/PGS
Codec ID/Info : Picture based subtitle format used on BDs/HD-DVDs
Duration : 1 h 28 min
Bit rate : 30.4 kb/s
Count of elements : 2284
Stream size : 19.2 MiB (0%)
Language : English
Default : No
Forced : No
Original source medium : Blu-ray

Menu
00:00:00.000 : Chapter 01
00:09:01.541 : Chapter 02
00:15:02.693 : Chapter 03
00:19:18.198 : Chapter 04
00:24:56.286 : Chapter 05
00:35:37.468 : Chapter 06
00:40:01.065 : Chapter 07
00:43:43.203 : Chapter 08
00:47:29.221 : Chapter 09
00:50:56.636 : Chapter 10
00:54:46.783 : Chapter 11
00:57:32.073 : Chapter 12
01:04:16.686 : Chapter 13
01:06:54.844 : Chapter 14
01:08:59.802 : Chapter 15
01:13:20.646 : Chapter 16
01:15:26.355 : Chapter 17
01:21:05.569 : Chapter 18
01:24:06.499 : Chapter 19
01:26:16.963 : Chapter 20

Format : Matroska
Format version : Version 4
File size : 4.22 GiB
Duration : 1 h 31 min
Overall bit rate mode : Variable
Overall bit rate : 6 589 kb/s
Encoded date : UTC 2021-07-10 21:31:13
Writing application : mkvmerge v56.1.0 ('My Friend') 64-bit
Writing library : libebml v1.4.2 + libmatroska v1.6.4
Aporte exclusivo para : MiCineHD.com
Uploader/Encoder : IgnacioHD

Video
ID : 1
Format : AVC
Format/Info : Advanced Video Codec
Format profile : High@L4.1
Format settings : CABAC / 4 Ref Frames
Format settings, CABAC : Yes
Format settings, Reference : 4 frames
Codec ID : V_MPEG4/ISO/AVC
Duration : 1 h 31 min
Bit rate mode : Variable
Bit rate : 5 000 kb/s
Maximum bit rate : 20.0 Mb/s
Width : 1 920 pixels
Height : 1 080 pixels
Display aspect ratio : 16:9
Frame rate mode : Constant
Frame rate : 23.976 (24000/1001) FPS
Color space : YUV
Chroma subsampling : 4:2:0
Bit depth : 8 bits
Scan type : Progressive
Bits/(Pixel*Frame) : 0.101
Stream size : 3.15 GiB (75%)
Writing library : x264 core 157 r2935 545de2f
Encoding settings : cabac=1 / ref=4 / deblock=1:0:0 / analyse=0x3:0x133 / me=umh / subme=10 / psy=1 / psy_rd=1.00:0.00 / mixed_ref=1 / me_range=24 / chroma_me=1 / trellis=2 / 8x8dct=1 / cqm=0 / deadzone=21,11 / fast_pskip=1 / chroma_qp_offset=-2 / threads=18 / lookahead_threads=3 / sliced_threads=0 / nr=0 / decimate=1 / interlaced=0 / bluray_compat=0 / constrained_intra=0 / bframes=8 / b_pyramid=2 / b_adapt=2 / b_bias=0 / direct=3 / weightb=1 / open_gop=0 / weightp=2 / keyint=240 / keyint_min=24 / scenecut=40 / intra_refresh=0 / rc_lookahead=60 / rc=abr / mbtree=1 / bitrate=5000 / ratetol=1.0 / qcomp=0.60 / qpmin=0 / qpmax=69 / qpstep=4 / vbv_maxrate=20000 / vbv_bufsize=25000 / nal_hrd=vbr / filler=0 / ip_ratio=1.40 / aq=1:1.00
Default : Yes
Forced : No
Color range : Limited
Color primaries : BT.709
Transfer characteristics : BT.709
Matrix coefficients : BT.709

Audio #1
ID : 2
Format : E-AC-3
Format/Info : Enhanced AC-3
Commercial name : Dolby Digital Plus
Format profile : Blu-ray Disc
Codec ID : A_EAC3
Duration : 1 h 31 min
Bit rate mode : Constant
Bit rate : 768 kb/s
Channel(s) : 8 channels
Channel layout : L R C LFE Ls Rs Lb Rb
Sampling rate : 48.0 kHz
Frame rate : 31.250 FPS (1536 SPF)
Compression mode : Lossy
Stream size : 504 MiB (12%)
Title : Latino WEB [eac3 7.1]
Language : Spanish
Service kind : Complete Main
Default : Yes
Forced : No

Audio #2
ID : 3
ID in the original source m : 4356 (0x1104)
Format : AC-3
Format/Info : Audio Coding 3
Commercial name : Dolby Digital
Codec ID : A_AC3
Duration : 1 h 31 min
Bit rate mode : Constant
Bit rate : 448 kb/s
Channel(s) : 6 channels
Channel layout : L R C LFE Ls Rs
Sampling rate : 48.0 kHz
Frame rate : 31.250 FPS (1536 SPF)
Compression mode : Lossy
Stream size : 294 MiB (7%)
Title : Latino BD [ac3 5.1]
Language : Spanish
Service kind : Complete Main
Default : No
Forced : No
Original source medium : Blu-ray

Audio #3
ID : 4
ID in the original source m : 4352 (0x1100)
Format : AC-3
Format/Info : Audio Coding 3
Commercial name : Dolby Digital
Codec ID : A_AC3
Duration : 1 h 31 min
Bit rate mode : Constant
Bit rate : 448 kb/s
Channel(s) : 6 channels
Channel layout : L R C LFE Ls Rs
Sampling rate : 48.0 kHz
Frame rate : 31.250 FPS (1536 SPF)
Compression mode : Lossy
Stream size : 294 MiB (7%)
Title : Ingles [ac3 5.1]
Language : English
Service kind : Complete Main
Default : No
Forced : No
Original source medium : Blu-ray

Text #1
ID : 5
Format : UTF-8
Codec ID : S_TEXT/UTF8
Codec ID/Info : UTF-8 Plain Text
Duration : 1 h 30 min
Bit rate : 11 b/s
Count of elements : 260
Stream size : 7.61 KiB (0%)
Title : Castellano Forzados [srt]
Language : Spanish
Default : Yes
Forced : No

Text #2
ID : 6
Format : UTF-8
Codec ID : S_TEXT/UTF8
Codec ID/Info : UTF-8 Plain Text
Duration : 1 h 30 min
Bit rate : 2 b/s
Count of elements : 88
Stream size : 1.92 KiB (0%)
Title : Latino Forzados [srt]
Language : Spanish
Default : No
Forced : No

Text #3
ID : 7
Format : UTF-8
Codec ID : S_TEXT/UTF8
Codec ID/Info : UTF-8 Plain Text
Duration : 1 h 30 min
Bit rate : 31 b/s
Count of elements : 786
Stream size : 21.0 KiB (0%)
Title : Latino Completos [srt]
Language : Spanish
Default : No
Forced : No

Text #4
ID : 8
ID in the original source m : 4608 (0x1200)
Format : PGS
Muxing mode : zlib
Codec ID : S_HDMV/PGS
Codec ID/Info : Picture based subtitle format used on BDs/HD-DVDs
Duration : 1 h 28 min
Bit rate : 30.4 kb/s
Count of elements : 2284
Stream size : 19.2 MiB (0%)
Language : English
Default : No
Forced : No
Original source medium : Blu-ray

Menu
00:00:00.000 : Chapter 01
00:09:01.541 : Chapter 02
00:15:02.693 : Chapter 03
00:19:18.198 : Chapter 04
00:24:56.286 : Chapter 05
00:35:37.468 : Chapter 06
00:40:01.065 : Chapter 07
00:43:43.203 : Chapter 08
00:47:29.221 : Chapter 09
00:50:56.636 : Chapter 10
00:54:46.783 : Chapter 11
00:57:32.073 : Chapter 12
01:04:16.686 : Chapter 13
01:06:54.844 : Chapter 14
01:08:59.802 : Chapter 15
01:13:20.646 : Chapter 16
01:15:26.355 : Chapter 17
01:21:05.569 : Chapter 18
01:24:06.499 : Chapter 19
01:26:16.963 : Chapter 20

Format : Matroska
Format version : Version 4
File size : 2.02 GiB
Duration : 1 h 31 min
Overall bit rate mode : Variable
Overall bit rate : 3 159 kb/s
Movie name : Nobody
Encoded date : UTC 2021-07-10 21:34:48
Writing application : mkvmerge v56.1.0 ('My Friend') 64-bit
Writing library : libebml v1.4.2 + libmatroska v1.6.4 / Lavf58.29.100
Aporte exclusivo para : MiCineHD.com
Uploader/Encoder : IgnacioHD

Video
ID : 8
Format : AVC
Format/Info : Advanced Video Codec
Format profile : High@L4.1
Format settings : CABAC / 5 Ref Frames
Format settings, CABAC : Yes
Format settings, Reference : 5 frames
Codec ID : V_MPEG4/ISO/AVC
Duration : 1 h 31 min
Bit rate mode : Variable
Bit rate : 1 500 kb/s
Maximum bit rate : 10 000 kb/s
Width : 1 280 pixels
Height : 720 pixels
Display aspect ratio : 16:9
Frame rate mode : Constant
Frame rate : 23.976 (24000/1001) FPS
Color space : YUV
Chroma subsampling : 4:2:0
Bit depth : 8 bits
Scan type : Progressive
Bits/(Pixel*Frame) : 0.068
Stream size : 972 MiB (47%)
Writing library : x264 core 157 r2935 545de2f
Encoding settings : cabac=1 / ref=5 / deblock=1:0:0 / analyse=0x3:0x113 / me=hex / subme=8 / psy=1 / psy_rd=1.00:0.00 / mixed_ref=1 / me_range=16 / chroma_me=1 / trellis=2 / 8x8dct=1 / cqm=0 / deadzone=21,11 / fast_pskip=1 / chroma_qp_offset=-2 / threads=18 / lookahead_threads=3 / sliced_threads=0 / nr=0 / decimate=1 / interlaced=0 / bluray_compat=0 / constrained_intra=0 / bframes=3 / b_pyramid=2 / b_adapt=1 / b_bias=0 / direct=3 / weightb=1 / open_gop=0 / weightp=2 / keyint=240 / keyint_min=24 / scenecut=40 / intra_refresh=0 / rc_lookahead=50 / rc=abr / mbtree=1 / bitrate=1500 / ratetol=1.0 / qcomp=0.60 / qpmin=0 / qpmax=69 / qpstep=4 / vbv_maxrate=10000 / vbv_bufsize=12500 / nal_hrd=vbr / filler=0 / ip_ratio=1.40 / aq=1:1.00
Default : Yes
Forced : No
Color range : Limited
Color primaries : BT.709
Transfer characteristics : BT.709
Matrix coefficients : BT.709

Audio #1
ID : 1
Format : E-AC-3
Format/Info : Enhanced AC-3
Commercial name : Dolby Digital Plus
Format profile : Blu-ray Disc
Codec ID : A_EAC3
Duration : 1 h 31 min
Bit rate mode : Constant
Bit rate : 768 kb/s
Channel(s) : 8 channels
Channel layout : L R C LFE Ls Rs Lb Rb
Sampling rate : 48.0 kHz
Frame rate : 31.250 FPS (1536 SPF)
Compression mode : Lossy
Stream size : 504 MiB (24%)
Title : Latino WEB [eac3 7.1]
Language : Spanish
Service kind : Complete Main
Default : Yes
Forced : No

Audio #2
ID : 2
ID in the original source m : 4356 (0x1104)
Format : AC-3
Format/Info : Audio Coding 3
Commercial name : Dolby Digital
Codec ID : A_AC3
Duration : 1 h 31 min
Bit rate mode : Constant
Bit rate : 448 kb/s
Channel(s) : 6 channels
Channel layout : L R C LFE Ls Rs
Sampling rate : 48.0 kHz
Frame rate : 31.250 FPS (1536 SPF)
Compression mode : Lossy
Stream size : 294 MiB (14%)
Title : Latino BD [ac3 5.1]
Language : Spanish
Service kind : Complete Main
Default : No
Forced : No
Original source medium : Blu-ray

Audio #3
ID : 3
ID in the original source m : 4352 (0x1100)
Format : AC-3
Format/Info : Audio Coding 3
Commercial name : Dolby Digital
Codec ID : A_AC3
Duration : 1 h 31 min
Bit rate mode : Constant
Bit rate : 448 kb/s
Channel(s) : 6 channels
Channel layout : L R C LFE Ls Rs
Sampling rate : 48.0 kHz
Frame rate : 31.250 FPS (1536 SPF)
Compression mode : Lossy
Stream size : 294 MiB (14%)
Title : Ingles [ac3 5.1]
Language : English
Service kind : Complete Main
Default : No
Forced : No
Original source medium : Blu-ray

Text #1
ID : 4
Format : UTF-8
Codec ID : S_TEXT/UTF8
Codec ID/Info : UTF-8 Plain Text
Duration : 1 h 30 min
Bit rate : 11 b/s
Count of elements : 260
Stream size : 7.61 KiB (0%)
Title : Castellano Forzados [srt]
Language : Spanish
Default : Yes
Forced : No

Text #2
ID : 5
Format : UTF-8
Codec ID : S_TEXT/UTF8
Codec ID/Info : UTF-8 Plain Text
Duration : 1 h 30 min
Bit rate : 2 b/s
Count of elements : 88
Stream size : 1.92 KiB (0%)
Title : Latino Forzados [srt]
Language : Spanish
Default : No
Forced : No

Text #3
ID : 6
Format : UTF-8
Codec ID : S_TEXT/UTF8
Codec ID/Info : UTF-8 Plain Text
Duration : 1 h 30 min
Bit rate : 31 b/s
Count of elements : 786
Stream size : 21.0 KiB (0%)
Title : Latino Completos [srt]
Language : Spanish
Default : No
Forced : No

Text #4
ID : 7
ID in the original source m : 4608 (0x1200)
Format : PGS
Muxing mode : zlib
Codec ID : S_HDMV/PGS
Codec ID/Info : Picture based subtitle format used on BDs/HD-DVDs
Duration : 1 h 28 min
Bit rate : 30.4 kb/s
Count of elements : 2284
Stream size : 19.2 MiB (1%)
Language : English
Default : No
Forced : No
Original source medium : Blu-ray

Menu #1
00:00:00.000 : Chapter 01
00:09:01.541 : Chapter 02
00:15:02.693 : Chapter 03
00:19:18.198 : Chapter 04
00:24:56.286 : Chapter 05
00:35:37.468 : Chapter 06
00:40:01.065 : Chapter 07
00:43:43.203 : Chapter 08
00:47:29.221 : Chapter 09
00:50:56.636 : Chapter 10
00:54:46.783 : Chapter 11
00:57:32.073 : Chapter 12
01:04:16.686 : Chapter 13
01:06:54.844 : Chapter 14
01:08:59.802 : Chapter 15
01:13:20.646 : Chapter 16
01:15:26.355 : Chapter 17
01:21:05.569 : Chapter 18
01:24:06.499 : Chapter 19
01:26:16.963 : Chapter 20

Menu #2
00:00:00.000 : :Chapter 1
00:09:01.541 : :Chapter 2
00:15:02.819 : :Chapter 3
00:19:18.199 : :Chapter 4
00:24:56.370 : :Chapter 5
00:35:37.469 : :Chapter 6
00:40:01.190 : :Chapter 7
00:43:43.204 : :Chapter 8
00:47:29.305 : :Chapter 9
00:50:56.637 : :Chapter 10
00:54:46.784 : :Chapter 11
00:57:32.074 : :Chapter 12
01:04:16.770 : :Chapter 13
01:06:54.969 : :Chapter 14
01:08:59.886 : :Chapter 15
01:13:20.771 : :Chapter 16
01:15:26.480 : :Chapter 17
01:21:05.652 : :Chapter 18
01:24:06.500 : :Chapter 19
01:26:17.047 : :Chapter 20

Format : Matroska
Format version : Version 4
File size : 21.4 GiB
Duration : 1 h 31 min
Overall bit rate mode : Variable
Overall bit rate : 33.4 Mb/s
Movie name : Nobody
Encoded date : UTC 2021-07-10 21:42:05
Writing application : mkvmerge v56.1.0 ('My Friend') 64-bit
Writing library : libebml v1.4.2 + libmatroska v1.6.4
Aporte exclusivo para : MiCineHD.com
Uploader/Encoder : IgnacioHD

Video
ID : 1
ID in the original source m : 4117 (0x1015)
Format : HEVC
Format/Info : High Efficiency Video Coding
Format profile : Main 10@L5.1@High
HDR format : Dolby Vision, Version 1.0, dvhe.08.06, BL+RPU, Blu-ray compatible / SMPTE ST 2094 App 4, Version 1, HDR10+ Profile B compatible
Codec ID : V_MPEGH/ISO/HEVC
Duration : 1 h 31 min
Bit rate : 28.9 Mb/s
Width : 3 840 pixels
Height : 1 608 pixels
Display aspect ratio : 2.40:1
Frame rate mode : Constant
Frame rate : 23.976 (24000/1001) FPS
Color space : YUV
Chroma subsampling : 4:2:0 (Type 2)
Bit depth : 10 bits
Bits/(Pixel*Frame) : 0.195
Stream size : 18.5 GiB (87%)
Writing library : x265 3.5+9-bf91444e0:[Windows][MSVC 1928][64 bit] 10bit
Encoding settings : cpuid=1111039 / frame-threads=5 / numa-pools=32 / wpp / no-pmode / no-pme / no-psnr / no-ssim / log-level=2 / input-csp=1 / input-res=3840x1608 / interlace=0 / total-frames=131912 / level-idc=51 / high-tier=1 / uhd-bd=0 / ref=5 / no-allow-non-conformance / repeat-headers / annexb / aud / no-eob / no-eos / hrd / info / hash=0 / no-temporal-layers / no-open-gop / min-keyint=23 / keyint=250 / gop-lookahead=0 / bframes=9 / b-adapt=2 / b-pyramid / bframe-bias=0 / rc-lookahead=48 / lookahead-slices=0 / scenecut=40 / hist-scenecut=0 / radl=0 / no-splice / no-intra-refresh / ctu=64 / min-cu-size=8 / rect / amp / max-tu-size=32 / tu-inter-depth=3 / tu-intra-depth=3 / limit-tu=0 / rdoq-level=2 / dynamic-rd=0.00 / no-ssim-rd / signhide / no-tskip / nr-intra=0 / nr-inter=0 / no-constrained-intra / no-strong-intra-smoothing / max-merge=5 / limit-refs=0 / limit-modes / me=3 / subme=5 / merange=60 / temporal-mvp / no-frame-dup / no-hme / weightp / weightb / no-analyze-src-pics / deblock=-3:-3 / no-sao / no-sao-non-deblock / rd=5 / selective-sao=0 / no-early-skip / no-rskip / no-fast-intra / no-tskip-fast / no-cu-lossless / b-intra / no-splitrd-skip / rdpenalty=0 / psy-rd=1.10 / psy-rdoq=1.10 / no-rd-refine / no-lossless / cbqpoffs=0 / crqpoffs=0 / rc=crf / crf=17.7 / qcomp=0.60 / qpstep=4 / stats-write=0 / stats-read=0 / vbv-maxrate=160000 / vbv-bufsize=160000 / vbv-init=0.9 / min-vbv-fullness=50.0 / max-vbv-fullness=80.0 / crf-max=0.0 / crf-min=0.0 / ipratio=1.30 / pbratio=1.20 / aq-mode=1 / aq-strength=0.75 / cutree / zone-count=0 / no-strict-cbr / qg-size=32 / no-rc-grain / qpmax=69 / qpmin=0 / no-const-vbv / sar=0 / overscan=0 / videoformat=5 / range=0 / colorprim=9 / transfer=16 / colormatrix=9 / chromaloc=1 / chromaloc-top=2 / chromaloc-bottom=2 / display-window=0 / master-display=G(13250,34500)B(7500,3000)R(34000,16000)WP(15635,16450)L(10000000,1) / cll=959,338 / min-luma=0 / max-luma=1023 / log2-max-poc-lsb=8 / vui-timing-info / vui-hrd-info / slices=1 / no-opt-qp-pps / no-opt-ref-list-length-pps / no-multi-pass-opt-rps / scenecut-bias=0.05 / hist-threshold=0.03 / no-opt-cu-delta-qp / no-aq-motion / hdr10 / hdr10-opt / dhdr10-opt / no-idr-recovery-sei / analysis-reuse-level=0 / analysis-save-reuse-level=0 / analysis-load-reuse-level=0 / scale-factor=0 / refine-intra=0 / refine-inter=0 / refine-mv=1 / refine-ctu-distortion=0 / no-limit-sao / ctu-info=0 / no-lowpass-dct / refine-analysis-type=0 / copy-pic=1 / max-ausize-factor=1.0 / no-dynamic-refine / no-single-sei / no-hevc-aq / no-svt / no-field / qp-adaptation-range=1.00 / scenecut-aware-qp=0conformance-window-offsets / right=0 / bottom=0 / decoder-max-rate=0 / no-vbv-live-multi-pass
Default : No
Forced : No
Color range : Limited
Color primaries : BT.2020
Transfer characteristics : PQ
Matrix coefficients : BT.2020 non-constant
Mastering display color pri : Display P3
Mastering display luminance : min: 0.0001 cd/m2, max: 1000 cd/m2
Maximum Content Light Level : 959 cd/m2
Maximum Frame-Average Light : 338 cd/m2
Original source medium : Blu-ray

Audio #1
ID : 2
Format : E-AC-3
Format/Info : Enhanced AC-3
Commercial name : Dolby Digital Plus
Format profile : Blu-ray Disc
Codec ID : A_EAC3
Duration : 1 h 31 min
Bit rate mode : Constant
Bit rate : 768 kb/s
Channel(s) : 8 channels
Channel layout : L R C LFE Ls Rs Lb Rb
Sampling rate : 48.0 kHz
Frame rate : 31.250 FPS (1536 SPF)
Compression mode : Lossy
Stream size : 504 MiB (2%)
Title : Latino WEB [eac3 7.1]
Language : Spanish
Service kind : Complete Main
Default : Yes
Forced : No

Audio #2
ID : 3
ID in the original source m : 4356 (0x1104)
Format : AC-3
Format/Info : Audio Coding 3
Commercial name : Dolby Digital
Codec ID : A_AC3
Duration : 1 h 31 min
Bit rate mode : Constant
Bit rate : 448 kb/s
Channel(s) : 6 channels
Channel layout : L R C LFE Ls Rs
Sampling rate : 48.0 kHz
Frame rate : 31.250 FPS (1536 SPF)
Compression mode : Lossy
Stream size : 294 MiB (1%)
Title : Latino BD [ac3 5.1]
Language : Spanish
Service kind : Complete Main
Default : No
Forced : No
Original source medium : Blu-ray

Audio #3
ID : 4
ID in the original source m : 4352 (0x1100)
Format : MLP FBA 16-ch
Format/Info : Meridian Lossless Packing FBA with 16-channel presentation
Commercial name : Dolby TrueHD with Dolby Atmos
Codec ID : A_TRUEHD
Duration : 1 h 31 min
Bit rate mode : Variable
Bit rate : 2 697 kb/s
Maximum bit rate : 4 788 kb/s
Channel(s) : 8 channels
Channel layout : L R C LFE Ls Rs Lb Rb
Sampling rate : 48.0 kHz
Frame rate : 1 200.000 FPS (40 SPF)
Bit depth : 24 bits
Compression mode : Lossless
Stream size : 1.73 GiB (8%)
Title : Ingles [TRU HD ATMOS 7.1]
Language : English
Default : No
Forced : No
Original source medium : Blu-ray
Number of dynamic objects : 11
Bed channel count : 1 channel
Bed channel configuration : LFE

Audio #4
ID : 5
ID in the original source m : 4352 (0x1100)
Format : AC-3
Format/Info : Audio Coding 3
Commercial name : Dolby Digital
Codec ID : A_AC3
Duration : 1 h 31 min
Bit rate mode : Constant
Bit rate : 448 kb/s
Channel(s) : 6 channels
Channel layout : L R C LFE Ls Rs
Sampling rate : 48.0 kHz
Frame rate : 31.250 FPS (1536 SPF)
Compression mode : Lossy
Stream size : 294 MiB (1%)
Title : Ingles [ac3 5.1]
Language : English
Service kind : Complete Main
Default : No
Forced : No
Original source medium : Blu-ray

Text #1
ID : 6
Format : UTF-8
Codec ID : S_TEXT/UTF8
Codec ID/Info : UTF-8 Plain Text
Duration : 1 h 30 min
Bit rate : 11 b/s
Count of elements : 260
Stream size : 7.61 KiB (0%)
Title : Castellano Forzados [srt]
Language : Spanish
Default : Yes
Forced : No

Text #2
ID : 7
Format : UTF-8
Codec ID : S_TEXT/UTF8
Codec ID/Info : UTF-8 Plain Text
Duration : 1 h 30 min
Bit rate : 2 b/s
Count of elements : 88
Stream size : 1.92 KiB (0%)
Title : Latino Forzados [srt]
Language : Spanish
Default : No
Forced : No

Text #3
ID : 8
Format : UTF-8
Codec ID : S_TEXT/UTF8
Codec ID/Info : UTF-8 Plain Text
Duration : 1 h 30 min
Bit rate : 31 b/s
Count of elements : 786
Stream size : 21.0 KiB (0%)
Title : Latino Completos [srt]
Language : Spanish
Default : No
Forced : No

Text #4
ID : 9
ID in the original source m : 4611 (0x1203)
Format : PGS
Muxing mode : zlib
Codec ID : S_HDMV/PGS
Codec ID/Info : Picture based subtitle format used on BDs/HD-DVDs
Duration : 1 h 30 min
Bit rate : 24.1 kb/s
Count of elements : 1874
Stream size : 15.5 MiB (0%)
Language : Spanish
Default : No
Forced : No
Original source medium : Blu-ray

Text #5
ID : 10
ID in the original source m : 4612 (0x1204)
Format : PGS
Muxing mode : zlib
Codec ID : S_HDMV/PGS
Codec ID/Info : Picture based subtitle format used on BDs/HD-DVDs
Duration : 1 h 30 min
Bit rate : 19.8 kb/s
Count of elements : 1572
Stream size : 12.8 MiB (0%)
Language : Spanish
Default : No
Forced : No
Original source medium : Blu-ray

Text #6
ID : 11
ID in the original source m : 4623 (0x120F)
Format : PGS
Muxing mode : zlib
Codec ID : S_HDMV/PGS
Codec ID/Info : Picture based subtitle format used on BDs/HD-DVDs
Duration : 1 h 31 min
Bit rate : 65.4 kb/s
Count of elements : 3231
Stream size : 42.8 MiB (0%)
Language : Spanish
Default : No
Forced : No
Original source medium : Blu-ray

Text #7
ID : 12
ID in the original source m : 4627 (0x1213)
Format : PGS
Muxing mode : zlib
Codec ID : S_HDMV/PGS
Codec ID/Info : Picture based subtitle format used on BDs/HD-DVDs
Duration : 1 h 31 min
Bit rate : 66.1 kb/s
Count of elements : 3302
Stream size : 43.2 MiB (0%)
Language : Spanish
Default : No
Forced : No
Original source medium : Blu-ray

Text #8
ID : 13
ID in the original source m : 4631 (0x1217)
Format : PGS
Muxing mode : zlib
Codec ID : S_HDMV/PGS
Codec ID/Info : Picture based subtitle format used on BDs/HD-DVDs
Duration : 1 h 30 min
Bit rate : 6 808 b/s
Count of elements : 520
Stream size : 4.39 MiB (0%)
Language : Spanish
Default : No
Forced : No
Original source medium : Blu-ray

Text #9
ID : 14
ID in the original source m : 4632 (0x1218)
Format : PGS
Muxing mode : zlib
Codec ID : S_HDMV/PGS
Codec ID/Info : Picture based subtitle format used on BDs/HD-DVDs
Duration : 1 h 30 min
Bit rate : 2 001 b/s
Count of elements : 176
Stream size : 1.29 MiB (0%)
Language : Spanish
Default : No
Forced : No
Original source medium : Blu-ray

Text #10
ID : 15
ID in the original source m : 4608 (0x1200)
Format : PGS
Muxing mode : zlib
Codec ID : S_HDMV/PGS
Codec ID/Info : Picture based subtitle format used on BDs/HD-DVDs
Duration : 1 h 28 min
Bit rate : 30.4 kb/s
Count of elements : 2284
Stream size : 19.2 MiB (0%)
Language : English
Default : No
Forced : No
Original source medium : Blu-ray

Menu
00:00:00.000 : Chapter 01
00:09:01.541 : Chapter 02
00:15:02.693 : Chapter 03
00:19:18.198 : Chapter 04
00:24:56.286 : Chapter 05
00:35:37.468 : Chapter 06
00:40:01.065 : Chapter 07
00:43:43.203 : Chapter 08
00:47:29.221 : Chapter 09
00:50:56.636 : Chapter 10
00:54:46.783 : Chapter 11
00:57:32.073 : Chapter 12
01:04:16.686 : Chapter 13
01:06:54.844 : Chapter 14
01:08:59.802 : Chapter 15
01:13:20.646 : Chapter 16
01:15:26.355 : Chapter 17
01:21:05.569 : Chapter 18
01:24:06.499 : Chapter 19
01:26:16.963 : Chapter 20

Format : Matroska
Format version : Version 4
File size : 11.9 GiB
Duration : 1 h 31 min
Overall bit rate : 18.6 Mb/s
Movie name : Nobody
Encoded date : UTC 2021-07-10 21:33:01
Writing application : mkvmerge v56.1.0 ('My Friend') 64-bit
Writing library : libebml v1.4.2 + libmatroska v1.6.4
Aporte exclusivo para : MiCineHD.com
Uploader/Encoder : IgnacioHD

Video
ID : 1
Format : AVC
Format/Info : Advanced Video Codec
Format profile : High@L4.1
Format settings : CABAC / 4 Ref Frames
Format settings, CABAC : Yes
Format settings, Reference : 4 frames
Codec ID : V_MPEG4/ISO/AVC
Duration : 1 h 31 min
Bit rate : 16.9 Mb/s
Width : 1 920 pixels
Height : 1 080 pixels
Display aspect ratio : 16:9
Frame rate mode : Constant
Frame rate : 23.976 (24000/1001) FPS
Color space : YUV
Chroma subsampling : 4:2:0
Bit depth : 8 bits
Scan type : Progressive
Bits/(Pixel*Frame) : 0.340
Stream size : 10.8 GiB (91%)
Writing library : x264 core 157 r2935 545de2f
Encoding settings : cabac=1 / ref=4 / deblock=1:0:0 / analyse=0x3:0x133 / me=tesa / subme=11 / psy=1 / psy_rd=1.00:0.00 / mixed_ref=1 / me_range=24 / chroma_me=1 / trellis=2 / 8x8dct=1 / cqm=0 / deadzone=21,11 / fast_pskip=0 / chroma_qp_offset=-2 / threads=18 / lookahead_threads=4 / sliced_threads=0 / nr=0 / decimate=1 / interlaced=0 / bluray_compat=0 / constrained_intra=0 / bframes=16 / b_pyramid=2 / b_adapt=2 / b_bias=0 / direct=3 / weightb=1 / open_gop=0 / weightp=2 / keyint=240 / keyint_min=24 / scenecut=40 / intra_refresh=0 / rc_lookahead=60 / rc=crf / mbtree=1 / crf=19.0 / qcomp=0.60 / qpmin=0 / qpmax=69 / qpstep=4 / vbv_maxrate=62500 / vbv_bufsize=78125 / crf_max=0.0 / nal_hrd=none / filler=0 / ip_ratio=1.40 / aq=1:1.00
Default : Yes
Forced : No
Color range : Limited
Color primaries : BT.709
Transfer characteristics : BT.709
Matrix coefficients : BT.709

Audio #1
ID : 2
Format : E-AC-3
Format/Info : Enhanced AC-3
Commercial name : Dolby Digital Plus
Format profile : Blu-ray Disc
Codec ID : A_EAC3
Duration : 1 h 31 min
Bit rate mode : Constant
Bit rate : 768 kb/s
Channel(s) : 8 channels
Channel layout : L R C LFE Ls Rs Lb Rb
Sampling rate : 48.0 kHz
Frame rate : 31.250 FPS (1536 SPF)
Compression mode : Lossy
Stream size : 504 MiB (4%)
Title : Latino WEB [eac3 7.1]
Language : Spanish
Service kind : Complete Main
Default : Yes
Forced : No

Audio #2
ID : 3
ID in the original source m : 4356 (0x1104)
Format : AC-3
Format/Info : Audio Coding 3
Commercial name : Dolby Digital
Codec ID : A_AC3
Duration : 1 h 31 min
Bit rate mode : Constant
Bit rate : 448 kb/s
Channel(s) : 6 channels
Channel layout : L R C LFE Ls Rs
Sampling rate : 48.0 kHz
Frame rate : 31.250 FPS (1536 SPF)
Compression mode : Lossy
Stream size : 294 MiB (2%)
Title : Latino BD [ac3 5.1]
Language : Spanish
Service kind : Complete Main
Default : No
Forced : No
Original source medium : Blu-ray

Audio #3
ID : 4
ID in the original source m : 4352 (0x1100)
Format : AC-3
Format/Info : Audio Coding 3
Commercial name : Dolby Digital
Codec ID : A_AC3
Duration : 1 h 31 min
Bit rate mode : Constant
Bit rate : 448 kb/s
Channel(s) : 6 channels
Channel layout : L R C LFE Ls Rs
Sampling rate : 48.0 kHz
Frame rate : 31.250 FPS (1536 SPF)
Compression mode : Lossy
Stream size : 294 MiB (2%)
Title : Ingles [ac3 5.1]
Language : English
Service kind : Complete Main
Default : No
Forced : No
Original source medium : Blu-ray

Text #1
ID : 5
Format : UTF-8
Codec ID : S_TEXT/UTF8
Codec ID/Info : UTF-8 Plain Text
Duration : 1 h 30 min
Bit rate : 11 b/s
Count of elements : 260
Stream size : 7.61 KiB (0%)
Title : Castellano Forzados [srt]
Language : Spanish
Default : Yes
Forced : No

Text #2
ID : 6
Format : UTF-8
Codec ID : S_TEXT/UTF8
Codec ID/Info : UTF-8 Plain Text
Duration : 1 h 30 min
Bit rate : 2 b/s
Count of elements : 88
Stream size : 1.92 KiB (0%)
Title : Latino Forzados [srt]
Language : Spanish
Default : No
Forced : No

Text #3
ID : 7
Format : UTF-8
Codec ID : S_TEXT/UTF8
Codec ID/Info : UTF-8 Plain Text
Duration : 1 h 30 min
Bit rate : 31 b/s
Count of elements : 786
Stream size : 21.0 KiB (0%)
Title : Latino Completos [srt]
Language : Spanish
Default : No
Forced : No

Text #4
ID : 8
ID in the original source m : 4608 (0x1200)
Format : PGS
Muxing mode : zlib
Codec ID : S_HDMV/PGS
Codec ID/Info : Picture based subtitle format used on BDs/HD-DVDs
Duration : 1 h 28 min
Bit rate : 30.4 kb/s
Count of elements : 2284
Stream size : 19.2 MiB (0%)
Language : English
Default : No
Forced : No
Original source medium : Blu-ray

Menu
00:00:00.000 : Chapter 01
00:09:01.541 : Chapter 02
00:15:02.693 : Chapter 03
00:19:18.198 : Chapter 04
00:24:56.286 : Chapter 05
00:35:37.468 : Chapter 06
00:40:01.065 : Chapter 07
00:43:43.203 : Chapter 08
00:47:29.221 : Chapter 09
00:50:56.636 : Chapter 10
00:54:46.783 : Chapter 11
00:57:32.073 : Chapter 12
01:04:16.686 : Chapter 13
01:06:54.844 : Chapter 14
01:08:59.802 : Chapter 15
01:13:20.646 : Chapter 16
01:15:26.355 : Chapter 17
01:21:05.569 : Chapter 18
01:24:06.499 : Chapter 19
01:26:16.963 : Chapter 20


Reportar Error Visitas: 92