Links Vip MCHD

Contenido privado

Todo aporte con enlaces de GDrive que pida permiso para descargar, se perdió, debido a que Google baneó múltiples cuentas, por lo tanto esos archivos están inaccesibles para descargar

Todos los enlaces rar son intercambiables

Problemas de contraseña o archivo dañado? repara siguiendo esta guía

Hansel & Gretel: Cazadores de brujas (2013) INFO

Format : Matroska
Format version : Version 4
File size : 50.2 GiB
Duration : 1 h 27 min
Overall bit rate mode : Variable
Overall bit rate : 81.7 Mb/s
Movie name : Hansel and Gretel: Witch Hunters (2013) - micinehd.com
Encoded date : UTC 2020-10-13 22:30:54
Writing application : mkvmerge v51.0.0 ('I Wish') 64-bit
Writing library : libebml v1.4.0 + libmatroska v1.6.2
Cover : Yes
Attachments : cover.jpg
Team : : MiCinefilosHD - Cinéfilos Ripeos Comunitarios
Uploader : Charly WitchHunter
Web : www.micinehd.com

Video
ID : 1
ID in the original source m : 4113 (0x1011)
Format : HEVC
Format/Info : High Efficiency Video Coding
Format profile : Main 10@L5.1@High
HDR format : SMPTE ST 2086, HDR10 compatible
Codec ID : V_MPEGH/ISO/HEVC
Duration : 1 h 27 min
Bit rate : 76.8 Mb/s
Width : 3 840 pixels
Height : 2 160 pixels
Display aspect ratio : 16:9
Frame rate mode : Constant
Frame rate : 23.976 (24000/1001) FPS
Color space : YUV
Chroma subsampling : 4:2:0 (Type 2)
Bit depth : 10 bits
Bits/(Pixel*Frame) : 0.386
Stream size : 47.2 GiB (94%)
Title : micinehd.com
Language : English
Default : No
Forced : No
Color range : Limited
Color primaries : BT.2020
Transfer characteristics : PQ
Matrix coefficients : BT.2020 non-constant
Mastering display color pri : Display P3
Mastering display luminance : min: 0.0001 cd/m2, max: 1000 cd/m2
Original source medium : Blu-ray

Audio #1
ID : 2
ID in the original source m : 4357 (0x1105)
Format : AC-3
Format/Info : Audio Coding 3
Commercial name : Dolby Digital
Codec ID : A_AC3
Duration : 1 h 27 min
Bit rate mode : Constant
Bit rate : 640 kb/s
Channel(s) : 6 channels
Channel layout : L R C LFE Ls Rs
Sampling rate : 48.0 kHz
Frame rate : 31.250 FPS (1536 SPF)
Compression mode : Lossy
Stream size : 403 MiB (1%)
Title : Español Latino [AC3 5.1]
Language : Spanish
Service kind : Complete Main
Default : No
Forced : No
Original source medium : Blu-ray

Audio #2
ID : 3
ID in the original source m : 4352 (0x1100)
Format : MLP FBA
Format/Info : Meridian Lossless Packing FBA
Commercial name : Dolby TrueHD
Codec ID : A_TRUEHD
Duration : 1 h 27 min
Bit rate mode : Variable
Bit rate : 3 526 kb/s
Maximum bit rate : 4 860 kb/s
Channel(s) : 6 channels
Channel layout : L R C LFE Ls Rs
Sampling rate : 48.0 kHz
Frame rate : 1 200.000 FPS (40 SPF)
Compression mode : Lossless
Stream size : 2.17 GiB (4%)
Title : Surround 5.1
Language : English
Default : Yes
Forced : No
Original source medium : Blu-ray

Audio #3
ID : 4
ID in the original source m : 4352 (0x1100)
Format : AC-3
Format/Info : Audio Coding 3
Commercial name : Dolby Digital
Codec ID : A_AC3
Duration : 1 h 27 min
Bit rate mode : Constant
Bit rate : 640 kb/s
Channel(s) : 6 channels
Channel layout : L R C LFE Ls Rs
Sampling rate : 48.0 kHz
Frame rate : 31.250 FPS (1536 SPF)
Compression mode : Lossy
Stream size : 403 MiB (1%)
Title : Español Latino [AC3 5.1]
Language : English
Service kind : Complete Main
Default : No
Forced : No
Original source medium : Blu-ray

Text
ID : 5
ID in the original source m : 4777 (0x12A9)
Format : PGS
Muxing mode : zlib
Codec ID : S_HDMV/PGS
Codec ID/Info : Picture based subtitle format used on BDs/HD-DVDs
Duration : 1 h 19 min
Bit rate : 20.2 kb/s
Count of elements : 1458
Stream size : 11.5 MiB (0%)
Title : Completos [SRT]
Language : Spanish
Default : No
Forced : No
Original source medium : Blu-ray

Format : Matroska
Format version : Version 4
File size : 4.73 GiB
Duration : 1 h 27 min
Overall bit rate mode : Variable
Overall bit rate : 7 699 kb/s
Movie name : Hansel and Gretel: Witch Hunters (2013) - micinehd.com
Encoded date : UTC 2020-11-12 06:56:24
Writing application : mkvmerge v51.0.0 ('I Wish') 64-bit
Writing library : libebml v1.4.0 + libmatroska v1.6.2
Team : : MiCinefilosHD - Cinéfilos Ripeos Comunitarios
Uploader : Charly WitchHunter
Web : www.micinehd.com

Video
ID : 1
Format : AVC
Format/Info : Advanced Video Codec
Format profile : High@L4.1
Format settings : CABAC / 4 Ref Frames
Format settings, CABAC : Yes
Format settings, Reference : 4 frames
Codec ID : V_MPEG4/ISO/AVC
Duration : 1 h 27 min
Bit rate : 3 500 kb/s
Width : 1 920 pixels
Height : 1 080 pixels
Display aspect ratio : 2.40:1
Frame rate mode : Constant
Frame rate : 23.976 (24000/1001) FPS
Color space : YUV
Chroma subsampling : 4:2:0
Bit depth : 8 bits
Scan type : Progressive
Bits/(Pixel*Frame) : 0.070
Stream size : 2.13 GiB (45%)
Title : micinehd.com
Writing library : x264 core 157 r2935 545de2f
Encoding settings : cabac=1 / ref=3 / deblock=1:0:0 / analyse=0x3:0x113 / me=hex / subme=7 / psy=1 / psy_rd=1.00:0.00 / mixed_ref=1 / me_range=16 / chroma_me=1 / trellis=1 / 8x8dct=1 / cqm=0 / deadzone=21,11 / fast_pskip=1 / chroma_qp_offset=-2 / threads=34 / lookahead_threads=5 / sliced_threads=0 / nr=0 / decimate=1 / interlaced=0 / bluray_compat=0 / constrained_intra=0 / bframes=3 / b_pyramid=2 / b_adapt=1 / b_bias=0 / direct=1 / weightb=1 / open_gop=0 / weightp=2 / keyint=240 / keyint_min=24 / scenecut=40 / intra_refresh=0 / rc_lookahead=40 / rc=abr / mbtree=1 / bitrate=3500 / ratetol=1.0 / qcomp=0.60 / qpmin=0 / qpmax=69 / qpstep=4 / vbv_maxrate=62500 / vbv_bufsize=78125 / nal_hrd=none / filler=0 / ip_ratio=1.40 / aq=1:1.00
Default : Yes
Forced : No
Color range : Limited
Color primaries : BT.2020
Transfer characteristics : PQ
Matrix coefficients : BT.2020 non-constant

Audio #1
ID : 2
Format : AC-3
Format/Info : Audio Coding 3
Commercial name : Dolby Digital
Codec ID : A_AC3
Duration : 1 h 27 min
Bit rate mode : Constant
Bit rate : 640 kb/s
Channel(s) : 6 channels
Channel layout : L R C LFE Ls Rs
Sampling rate : 48.0 kHz
Frame rate : 31.250 FPS (1536 SPF)
Compression mode : Lossy
Stream size : 403 MiB (8%)
Title : Español Latino [AC3 5.1]
Language : Spanish
Service kind : Complete Main
Default : Yes
Forced : No

Audio #2
ID : 3
Format : MLP FBA
Format/Info : Meridian Lossless Packing FBA
Commercial name : Dolby TrueHD
Codec ID : A_TRUEHD
Duration : 1 h 27 min
Bit rate mode : Variable
Bit rate : 3 526 kb/s
Maximum bit rate : 4 860 kb/s
Channel(s) : 6 channels
Channel layout : L R C LFE Ls Rs
Sampling rate : 48.0 kHz
Frame rate : 1 200.000 FPS (40 SPF)
Compression mode : Lossless
Stream size : 2.17 GiB (46%)
Title : English [TrueHD]
Language : English
Default : No
Forced : No

Text #1
ID : 4
Format : UTF-8
Codec ID : S_TEXT/UTF8
Codec ID/Info : UTF-8 Plain Text
Duration : 35 min 54 s
Bit rate : 1 b/s
Count of elements : 14
Stream size : 406 Bytes (0%)
Title : Forzados [SRT]
Language : Spanish
Default : Yes
Forced : Yes

Text #2
ID : 5
Format : UTF-8
Codec ID : S_TEXT/UTF8
Codec ID/Info : UTF-8 Plain Text
Duration : 1 h 19 min
Bit rate : 33 b/s
Count of elements : 729
Stream size : 19.4 KiB (0%)
Title : Completos [SRT]
Language : Spanish
Default : No
Forced : No

Formato : Matroska
Formato de la versión : Version 4
Tamaño de archivo : 1,12 GiB
Duración : 1 h 27 min
Modo de tasa de bits : Variable
Tasa de bits general : 1 821 kb/s
Película : Hansel y Gretel - Cazadores de brujas (2013) - micinehd.com
Fecha de codificación : UTC 2020-10-19 15:42:55
Aplicación de codifición : mkvmerge v51.0.0 ('I Wish') 64-bit
Librería de codificación : libebml v1.4.0 + libmatroska v1.6.2
Team : : MiCinefilosHD - Cinéfilos Ripeos Comunitarios
Uploader : Charly WitchHunter
Web : www.micinehd.com

Vídeo
ID : 1
Formato : AVC
Formato/Info : Advanced Video Codec
Formato del perfil : High@L4.1
Ajustes del formato : CABAC / 5 Ref Frames
Ajustes del formato, CABAC : Sí
Ajustes del formato, RefFrames : 5 fotogramas
ID códec : V_MPEG4/ISO/AVC
Duración : 1 h 27 min
Tipo de tasa de bits : Variable
Tasa de bits : 1 500 kb/s
Tasa de bits máxima : 10 000 kb/s
Ancho : 1 280 píxeles
Alto : 720 píxeles
Relación de aspecto : 16:9
Modo velocidad fotogramas : Constante
Velocidad de fotogramas : 23,976 (24000/1001) FPS
Espacio de color : YUV
Submuestreo croma : 4:2:0
Profundidad bits : 8 bits
Tipo barrido : Progresivo
Bits/(píxel*fotograma) : 0.068
Tamaño de pista : 938 MiB (82%)
Título : micinehd.com
Librería de codificación : x264 core 157 r2935 545de2f
Opciones de codificación : cabac=1 / ref=5 / deblock=1:0:0 / analyse=0x3:0x113 / me=hex / subme=8 / psy=1 / psy_rd=1.00:0.00 / mixed_ref=1 / me_range=16 / chroma_me=1 / trellis=2 / 8x8dct=1 / cqm=0 / deadzone=21,11 / fast_pskip=1 / chroma_qp_offset=-2 / threads=22 / lookahead_threads=3 / sliced_threads=0 / nr=0 / decimate=1 / interlaced=0 / bluray_compat=0 / constrained_intra=0 / bframes=3 / b_pyramid=2 / b_adapt=1 / b_bias=0 / direct=3 / weightb=1 / open_gop=0 / weightp=2 / keyint=240 / keyint_min=24 / scenecut=40 / intra_refresh=0 / rc_lookahead=50 / rc=abr / mbtree=1 / bitrate=1500 / ratetol=1.0 / qcomp=0.60 / qpmin=0 / qpmax=69 / qpstep=4 / vbv_maxrate=10000 / vbv_bufsize=12500 / nal_hrd=vbr / filler=0 / ip_ratio=1.40 / aq=1:1.00
Default : Sí
Forced : No
Rango de color : Limited
Colores primarios : BT.2020
Características transferencia : PQ
Coeficientes matriz : BT.2020 non-constant

Audio #1
ID : 2
Formato : AAC LC
Formato/Info : Advanced Audio Codec Low Complexity
ID códec : A_AAC-2
Duración : 1 h 27 min
Tasa de bits : 160 kb/s
Canal(es) : 2 canales
Channel layout : L R
Velocidad de muestreo : 48,0 kHz
Velocidad de fotogramas : 46,875 FPS (1024 SPF)
Modo de compresión : Con pérdida
Retraso relativo al vídeo : -21 ms
Tamaño de pista : 101 MiB (9%)
Título : Español Latino [AAC]
Idioma : Español
Default : Sí
Forced : No

Audio #2
ID : 3
Formato : AAC LC
Formato/Info : Advanced Audio Codec Low Complexity
ID códec : A_AAC-2
Duración : 1 h 27 min
Tasa de bits : 160 kb/s
Canal(es) : 2 canales
Channel layout : L R
Velocidad de muestreo : 48,0 kHz
Velocidad de fotogramas : 46,875 FPS (1024 SPF)
Modo de compresión : Con pérdida
Retraso relativo al vídeo : -21 ms
Tamaño de pista : 101 MiB (9%)
Título : English [AAC]
Idioma : Inglés
Default : No
Forced : No

Texto
ID : 4
Formato : PGS
Modo multiplexor : zlib
ID códec : S_HDMV/PGS
ID códec/Info : Picture based subtitle format used on BDs/HD-DVDs
Duración : 1 h 19 min
Tasa de bits : 20,2 kb/s
Count of elements : 1458
Tamaño de pista : 11,5 MiB (1%)
Título : Completos [PGS]
Idioma : Español
Default : No
Forced : No

Reportar Error Visitas: 218