Links Vip MCHD

Contenido privado

Todo aporte con enlaces de GDrive que pida permiso para descargar, se perdió, debido a que Google baneó múltiples cuentas, por lo tanto esos archivos están inaccesibles para descargar

Todos los enlaces rar son intercambiables

Problemas de contraseña o archivo dañado? repara siguiendo esta guía

Luca MediaInfo

General
Format : Matroska
Format version : Version 4
File size : 44.2 GiB
Duration : 1 h 35 min
Overall bit rate mode : Variable
Overall bit rate : 66.4 Mb/s
Movie name : Luca.2021.REMUX.2160p.HEVC-MiCineHD.mkv"
Encoded date : UTC 2021-08-02 15:17:01
Writing application : mkvmerge v60.0.0 ('Are We Copies?') 64-bit
Writing library : libebml v1.4.2 + libmatroska v1.6.4
Aporte exclusivo para : MiCineHD.com
Encoder | Uploader : pinkmanHD

Video
ID : 1
Format : HEVC
Format/Info : High Efficiency Video Coding
Format profile : Main 10@L5.1@High
HDR format : SMPTE ST 2086, HDR10 compatible
Codec ID : V_MPEGH/ISO/HEVC
Duration : 1 h 35 min
Width : 3 840 pixels
Height : 2 160 pixels
Display aspect ratio : 16:9
Frame rate mode : Constant
Frame rate : 23.976 (24000/1001) FPS
Color space : YUV
Chroma subsampling : 4:2:0 (Type 2)
Bit depth : 10 bits
Title : MiCineHD.com
Writing library : ATEME Titan File 3.9.6 (4.9.6.2)
Language : English
Default : No
Forced : No
Color range : Limited
Color primaries : BT.2020
Transfer characteristics : PQ
Matrix coefficients : BT.2020 non-constant
Mastering display color primaries : BT.2020
Mastering display luminance : min: 0.0001 cd/m2, max: 1000 cd/m2

Audio #1
ID : 2
Format : AC-3
Format/Info : Audio Coding 3
Commercial name : Dolby Digital
Codec ID : A_AC3
Duration : 1 h 35 min
Bit rate mode : Constant
Bit rate : 576 kb/s
Channel(s) : 6 channels
Channel layout : L R C LFE Ls Rs
Sampling rate : 48.0 kHz
Frame rate : 31.250 FPS (1536 SPF)
Compression mode : Lossy
Stream size : 392 MiB (1%)
Title : MiCineHD.com
Language : Spanish
Service kind : Complete Main
Default : No
Forced : No

Audio #2
ID : 3
Format : E-AC-3
Format/Info : Enhanced AC-3
Commercial name : Dolby Digital Plus
Format profile : Blu-ray Disc
Codec ID : A_EAC3
Duration : 1 h 35 min
Bit rate mode : Constant
Bit rate : 1 024 kb/s
Channel(s) : 8 channels
Channel layout : L R C LFE Ls Rs Lb Rb
Sampling rate : 48.0 kHz
Frame rate : 31.250 FPS (1536 SPF)
Compression mode : Lossy
Stream size : 698 MiB (2%)
Title : MiCineHD.com
Language : Spanish
Service kind : Complete Main
Default : No
Forced : No

Audio #3
ID : 4
Format : AC-3
Format/Info : Audio Coding 3
Commercial name : Dolby Digital
Codec ID : A_AC3
Duration : 1 h 35 min
Bit rate mode : Constant
Bit rate : 640 kb/s
Channel(s) : 6 channels
Channel layout : L R C LFE Ls Rs
Sampling rate : 48.0 kHz
Frame rate : 31.250 FPS (1536 SPF)
Compression mode : Lossy
Stream size : 436 MiB (1%)
Title : MiCineHD.com
Language : English
Service kind : Complete Main
Default : No
Forced : No

Audio #4
ID : 5
Format : MLP FBA 16-ch
Format/Info : Meridian Lossless Packing FBA with 16-channel presentation
Commercial name : Dolby TrueHD with Dolby Atmos
Codec ID : A_TRUEHD
Duration : 1 h 35 min
Bit rate mode : Variable
Maximum bit rate : 5 985 kb/s
Channel(s) : 8 channels
Channel layout : L R C LFE Ls Rs Lb Rb
Sampling rate : 48.0 kHz
Frame rate : 1 200.000 FPS (40 SPF)
Bit depth : 24 bits
Compression mode : Lossless
Title : MiCineHD.com
Language : English
Default : No
Forced : No
Number of dynamic objects : 13
Bed channel count : 1 channel
Bed channel configuration : LFE

Audio #5
ID : 6
Format : DTS XLL
Format/Info : Digital Theater Systems
Commercial name : DTS-HD Master Audio
Codec ID : A_DTS
Duration : 1 h 35 min
Bit rate mode : Variable
Channel(s) : 8 channels
Channel layout : C L R LFE Lb Rb Lss Rss
Sampling rate : 48.0 kHz
Frame rate : 93.750 FPS (512 SPF)
Bit depth : 24 bits
Compression mode : Lossless
Title : MiCineHD.com
Language : English
Default : No
Forced : No

Audio #6
ID : 7
Format : E-AC-3
Format/Info : Enhanced AC-3
Commercial name : Dolby Digital Plus
Format profile : Blu-ray Disc
Codec ID : A_EAC3
Duration : 1 h 35 min
Bit rate mode : Constant
Bit rate : 1 024 kb/s
Channel(s) : 8 channels
Channel layout : L R C LFE Ls Rs Lb Rb
Sampling rate : 48.0 kHz
Frame rate : 31.250 FPS (1536 SPF)
Compression mode : Lossy
Stream size : 698 MiB (2%)
Title : MiCineHD.com
Language : English
Service kind : Complete Main
Default : No
Forced : No

Text #1
ID : 8
Format : UTF-8
Codec ID : S_TEXT/UTF8
Codec ID/Info : UTF-8 Plain Text
Title : MiCineHD.com
Language : Spanish
Default : No
Forced : No

Text #2
ID : 9
Format : UTF-8
Codec ID : S_TEXT/UTF8
Codec ID/Info : UTF-8 Plain Text
Title : MiCineHD.com
Language : English
Default : No
Forced : No

Text #3
ID : 10
Format : PGS
Muxing mode : zlib
Codec ID : S_HDMV/PGS
Codec ID/Info : Picture based subtitle format used on BDs/HD-DVDs
Title : MiCineHD.com
Language : Spanish
Default : No
Forced : No

Text #4
ID : 11
Format : PGS
Muxing mode : zlib
Codec ID : S_HDMV/PGS
Codec ID/Info : Picture based subtitle format used on BDs/HD-DVDs
Title : MiCineHD.com
Language : English
Default : No
Forced : No

Menu
00:00:00.000 : Chapter 01
00:02:27.897 : Chapter 02
00:06:26.928 : Chapter 03
00:08:29.884 : Chapter 04
00:11:19.512 : Chapter 05
00:14:35.291 : Chapter 06
00:16:30.197 : Chapter 07
00:17:07.735 : Chapter 08
00:21:19.486 : Chapter 09
00:23:31.785 : Chapter 10
00:26:01.226 : Chapter 11
00:28:11.815 : Chapter 12
00:32:55.515 : Chapter 13
00:35:39.971 : Chapter 14
00:37:28.996 : Chapter 15
00:41:38.204 : Chapter 16
00:42:25.876 : Chapter 17
00:45:04.118 : Chapter 18
00:46:06.680 : Chapter 19
00:48:53.513 : Chapter 20
00:51:00.098 : Chapter 21
00:52:04.746 : Chapter 22
00:54:33.561 : Chapter 23
00:56:18.833 : Chapter 24
00:58:30.340 : Chapter 25
01:00:07.520 : Chapter 26
01:00:43.514 : Chapter 27
01:02:10.059 : Chapter 28
01:04:51.888 : Chapter 29
01:06:49.088 : Chapter 30
01:09:33.711 : Chapter 31
01:13:19.978 : Chapter 32
01:16:47.352 : Chapter 33
01:19:33.393 : Chapter 34
01:20:53.723 : Chapter 35
01:24:34.944 : Chapter 36
01:33:41.532 : Chapter 37


General
Format : Matroska
Format version : Version 4
File size : 26.5 GiB
Duration : 1 h 35 min
Overall bit rate mode : Variable
Overall bit rate : 39.9 Mb/s
Movie name : Luca.2021.REMUX.1080p.x264-MiCineHD.mkv"
Encoded date : UTC 2021-08-02 14:57:06
Writing application : mkvmerge v60.0.0 ('Are We Copies?') 64-bit
Writing library : libebml v1.4.2 + libmatroska v1.6.4
Aporte exclusivo para : MiCineHD.com
Encoder | Uploader : pinkmanHD

Video
ID : 1
Format : AVC
Format/Info : Advanced Video Codec
Format profile : High@L4.1
Format settings : CABAC / 4 Ref Frames
Format settings, CABAC : Yes
Format settings, Reference frames : 4 frames
Codec ID : V_MPEG4/ISO/AVC
Duration : 1 h 35 min
Bit rate mode : Variable
Maximum bit rate : 32.0 Mb/s
Width : 1 920 pixels
Height : 1 080 pixels
Display aspect ratio : 16:9
Frame rate mode : Constant
Frame rate : 23.976 (24000/1001) FPS
Color space : YUV
Chroma subsampling : 4:2:0
Bit depth : 8 bits
Scan type : Progressive
Title : MiCineHD.com
Language : English
Default : No
Forced : No

Audio #1
ID : 2
Format : AC-3
Format/Info : Audio Coding 3
Commercial name : Dolby Digital
Codec ID : A_AC3
Duration : 1 h 35 min
Bit rate mode : Constant
Bit rate : 576 kb/s
Channel(s) : 6 channels
Channel layout : L R C LFE Ls Rs
Sampling rate : 48.0 kHz
Frame rate : 31.250 FPS (1536 SPF)
Compression mode : Lossy
Stream size : 392 MiB (1%)
Title : MiCineHD.com
Language : Spanish
Service kind : Complete Main
Default : No
Forced : No

Audio #2
ID : 3
Format : AC-3
Format/Info : Audio Coding 3
Commercial name : Dolby Digital
Codec ID : A_AC3
Duration : 1 h 35 min
Bit rate mode : Constant
Bit rate : 640 kb/s
Channel(s) : 6 channels
Channel layout : L R C LFE Ls Rs
Sampling rate : 48.0 kHz
Frame rate : 31.250 FPS (1536 SPF)
Compression mode : Lossy
Stream size : 436 MiB (2%)
Title : MiCineHD.com
Language : English
Service kind : Complete Main
Default : No
Forced : No

Audio #3
ID : 4
Format : E-AC-3
Format/Info : Enhanced AC-3
Commercial name : Dolby Digital Plus
Format profile : Blu-ray Disc
Codec ID : A_EAC3
Duration : 1 h 35 min
Bit rate mode : Constant
Bit rate : 1 024 kb/s
Channel(s) : 8 channels
Channel layout : L R C LFE Ls Rs Lb Rb
Sampling rate : 48.0 kHz
Frame rate : 31.250 FPS (1536 SPF)
Compression mode : Lossy
Stream size : 698 MiB (3%)
Title : MiCineHD.com
Language : Spanish
Service kind : Complete Main
Default : No
Forced : No

Audio #4
ID : 5
Format : MLP FBA 16-ch
Format/Info : Meridian Lossless Packing FBA with 16-channel presentation
Commercial name : Dolby TrueHD with Dolby Atmos
Codec ID : A_TRUEHD
Duration : 1 h 35 min
Bit rate mode : Variable
Maximum bit rate : 5 985 kb/s
Channel(s) : 8 channels
Channel layout : L R C LFE Ls Rs Lb Rb
Sampling rate : 48.0 kHz
Frame rate : 1 200.000 FPS (40 SPF)
Bit depth : 24 bits
Compression mode : Lossless
Title : MiCineHD.com
Language : English
Default : No
Forced : No
Number of dynamic objects : 13
Bed channel count : 1 channel
Bed channel configuration : LFE

Audio #5
ID : 6
Format : DTS XLL
Format/Info : Digital Theater Systems
Commercial name : DTS-HD Master Audio
Codec ID : A_DTS
Duration : 1 h 35 min
Bit rate mode : Variable
Channel(s) : 8 channels
Channel layout : C L R LFE Lb Rb Lss Rss
Sampling rate : 48.0 kHz
Frame rate : 93.750 FPS (512 SPF)
Bit depth : 24 bits
Compression mode : Lossless
Title : MiCineHD.com
Language : English
Default : No
Forced : No

Text #1
ID : 7
Format : UTF-8
Codec ID : S_TEXT/UTF8
Codec ID/Info : UTF-8 Plain Text
Title : MiCineHD.com
Language : Spanish
Default : No
Forced : No

Text #2
ID : 8
Format : UTF-8
Codec ID : S_TEXT/UTF8
Codec ID/Info : UTF-8 Plain Text
Title : MiCineHD.com
Language : English
Default : No
Forced : No

Text #3
ID : 9
Format : PGS
Muxing mode : zlib
Codec ID : S_HDMV/PGS
Codec ID/Info : Picture based subtitle format used on BDs/HD-DVDs
Title : MiCineHD.com
Language : Spanish
Default : No
Forced : No

Text #4
ID : 10
Format : PGS
Muxing mode : zlib
Codec ID : S_HDMV/PGS
Codec ID/Info : Picture based subtitle format used on BDs/HD-DVDs
Title : MiCineHD.com
Language : English
Default : No
Forced : No

Menu
00:00:00.000 : Chapter 01
00:02:27.897 : Chapter 02
00:06:27.220 : Chapter 03
00:08:29.884 : Chapter 04
00:11:19.512 : Chapter 05
00:14:35.291 : Chapter 06
00:16:30.197 : Chapter 07
00:17:07.735 : Chapter 08
00:21:19.486 : Chapter 09
00:23:31.993 : Chapter 10
00:26:01.393 : Chapter 11
00:28:11.815 : Chapter 12
00:32:55.515 : Chapter 13
00:35:39.971 : Chapter 14
00:37:29.372 : Chapter 15
00:41:38.204 : Chapter 16
00:42:25.876 : Chapter 17
00:45:04.118 : Chapter 18
00:46:06.680 : Chapter 19
00:48:53.639 : Chapter 20
00:51:00.098 : Chapter 21
00:52:04.746 : Chapter 22
00:54:33.561 : Chapter 23
00:56:18.833 : Chapter 24
00:58:30.340 : Chapter 25
01:00:07.520 : Chapter 26
01:00:43.598 : Chapter 27
01:02:10.059 : Chapter 28
01:04:51.929 : Chapter 29
01:06:49.088 : Chapter 30
01:09:33.836 : Chapter 31
01:13:19.978 : Chapter 32
01:16:47.477 : Chapter 33
01:19:33.477 : Chapter 34
01:20:53.723 : Chapter 35
01:24:34.944 : Chapter 36
01:33:41.532 : Chapter 37


General
Format : Matroska
Format version : Version 4
File size : 8.09 GiB
Duration : 1 h 35 min
Overall bit rate mode : Variable
Overall bit rate : 12.2 Mb/s
Movie name : Luca.2021.BDrip.1080p.x264-MiCineHD.mkv"
Encoded date : UTC 2021-08-02 16:17:10
Writing application : mkvmerge v59.0.0 ('Shining Star') 64-bit
Writing library : libebml v1.4.2 + libmatroska v1.6.4
Aporte exclusivo para : MiCineHD.com
Encoder | Uploader : pinkmanHD

Video
ID : 1
Format : AVC
Format/Info : Advanced Video Codec
Format profile : High@L4
Format settings : CABAC / 4 Ref Frames
Format settings, CABAC : Yes
Format settings, Reference frames : 4 frames
Codec ID : V_MPEG4/ISO/AVC
Duration : 1 h 35 min
Width : 1 920 pixels
Height : 1 032 pixels
Display aspect ratio : 1.85:1
Frame rate mode : Constant
Frame rate : 23.976 (24000/1001) FPS
Color space : YUV
Chroma subsampling : 4:2:0
Bit depth : 8 bits
Scan type : Progressive
Title : MiCineHD.com
Writing library : x264 core 164 r3065+9 7a0e6e8 [Mod by Patman]
Encoding settings : cabac=1 / ref=3 / deblock=1:0:0 / analyse=0x3:0x113 / me=hex / subme=7 / psy=0 / mixed_ref=1 / me_range=16 / chroma_me=1 / trellis=1 / 8x8dct=1 / cqm=0 / deadzone=21,11 / fast_pskip=1 / chroma_qp_offset=0 / threads=18 / lookahead_threads=3 / sliced_threads=0 / nr=0 / decimate=1 / interlaced=0 / bluray_compat=0 / constrained_intra=0 / bframes=3 / b_pyramid=2 / b_adapt=1 / b_bias=0 / direct=1 / weightb=1 / open_gop=0 / weightp=2 / keyint=250 / keyint_min=23 / scenecut=40 / intra_refresh=0 / rc_lookahead=40 / rc=crf / mbtree=1 / crf=20.0 / qcomp=0.60 / qpmin=0 / qpmax=69 / qpstep=4 / ip_ratio=1.40 / aq=2:1.00
Default : Yes
Forced : No

Audio #1
ID : 2
Format : AC-3
Format/Info : Audio Coding 3
Commercial name : Dolby Digital
Codec ID : A_AC3
Duration : 1 h 35 min
Bit rate mode : Constant
Bit rate : 576 kb/s
Channel(s) : 6 channels
Channel layout : L R C LFE Ls Rs
Sampling rate : 48.0 kHz
Frame rate : 31.250 FPS (1536 SPF)
Compression mode : Lossy
Stream size : 392 MiB (5%)
Title : MiCineHD.com
Language : Spanish
Service kind : Complete Main
Default : No
Forced : No

Audio #2
ID : 3
Format : E-AC-3
Format/Info : Enhanced AC-3
Commercial name : Dolby Digital Plus
Format profile : Blu-ray Disc
Codec ID : A_EAC3
Duration : 1 h 35 min
Bit rate mode : Constant
Bit rate : 1 024 kb/s
Channel(s) : 8 channels
Channel layout : L R C LFE Ls Rs Lb Rb
Sampling rate : 48.0 kHz
Frame rate : 31.250 FPS (1536 SPF)
Compression mode : Lossy
Stream size : 698 MiB (8%)
Title : MiCineHD.com
Language : Spanish
Service kind : Complete Main
Default : No
Forced : No

Audio #3
ID : 4
Format : AC-3
Format/Info : Audio Coding 3
Commercial name : Dolby Digital
Codec ID : A_AC3
Duration : 1 h 35 min
Bit rate mode : Constant
Bit rate : 640 kb/s
Channel(s) : 6 channels
Channel layout : L R C LFE Ls Rs
Sampling rate : 48.0 kHz
Frame rate : 31.250 FPS (1536 SPF)
Compression mode : Lossy
Stream size : 436 MiB (5%)
Title : MiCineHD.com
Language : English
Service kind : Complete Main
Default : No
Forced : No

Audio #4
ID : 5
Format : DTS XLL
Format/Info : Digital Theater Systems
Commercial name : DTS-HD Master Audio
Codec ID : A_DTS
Duration : 1 h 35 min
Bit rate mode : Variable
Channel(s) : 8 channels
Channel layout : C L R LFE Lb Rb Lss Rss
Sampling rate : 48.0 kHz
Frame rate : 93.750 FPS (512 SPF)
Bit depth : 24 bits
Compression mode : Lossless
Title : MiCineHD.com
Language : English
Default : No
Forced : No

Text #1
ID : 6
Format : UTF-8
Codec ID : S_TEXT/UTF8
Codec ID/Info : UTF-8 Plain Text
Title : MiCineHD.com
Language : Spanish
Default : No
Forced : No

Text #2
ID : 7
Format : UTF-8
Codec ID : S_TEXT/UTF8
Codec ID/Info : UTF-8 Plain Text
Title : MiCineHD.com
Language : English
Default : No
Forced : No

Text #3
ID : 8
Format : PGS
Muxing mode : zlib
Codec ID : S_HDMV/PGS
Codec ID/Info : Picture based subtitle format used on BDs/HD-DVDs
Title : MiCineHD.com
Language : Spanish
Default : No
Forced : No

Text #4
ID : 9
Format : PGS
Muxing mode : zlib
Codec ID : S_HDMV/PGS
Codec ID/Info : Picture based subtitle format used on BDs/HD-DVDs
Title : MiCineHD.com
Language : English
Default : No
Forced : No

Menu
00:00:00.000 : Chapter 01
00:02:27.897 : Chapter 02
00:06:27.220 : Chapter 03
00:08:29.884 : Chapter 04
00:11:19.512 : Chapter 05
00:14:35.291 : Chapter 06
00:16:30.197 : Chapter 07
00:17:07.735 : Chapter 08
00:21:19.486 : Chapter 09
00:23:31.993 : Chapter 10
00:26:01.393 : Chapter 11
00:28:11.815 : Chapter 12
00:32:55.515 : Chapter 13
00:35:39.971 : Chapter 14
00:37:29.372 : Chapter 15
00:41:38.204 : Chapter 16
00:42:25.876 : Chapter 17
00:45:04.118 : Chapter 18
00:46:06.680 : Chapter 19
00:48:53.639 : Chapter 20
00:51:00.098 : Chapter 21
00:52:04.746 : Chapter 22
00:54:33.561 : Chapter 23
00:56:18.833 : Chapter 24
00:58:30.340 : Chapter 25
01:00:07.520 : Chapter 26
01:00:43.598 : Chapter 27
01:02:10.059 : Chapter 28
01:04:51.929 : Chapter 29
01:06:49.088 : Chapter 30
01:09:33.836 : Chapter 31
01:13:19.978 : Chapter 32
01:16:47.477 : Chapter 33
01:19:33.477 : Chapter 34
01:20:53.723 : Chapter 35
01:24:34.944 : Chapter 36
01:33:41.532 : Chapter 37


General
Format : Matroska
Format version : Version 4
File size : 2.31 GiB
Duration : 1 h 35 min
Overall bit rate : 3 467 kb/s
Movie name : Luca.2021.BDrip.720p.x264-MiCineHD.mkv"
Encoded date : UTC 2021-08-02 16:35:19
Writing application : mkvmerge v59.0.0 ('Shining Star') 64-bit
Writing library : libebml v1.4.2 + libmatroska v1.6.4
Aporte exclusivo para : MiCineHD.com
Encoder | Uploader : pinkmanHD

Video
ID : 1
Format : AVC
Format/Info : Advanced Video Codec
Format profile : High@L3.1
Format settings : CABAC / 4 Ref Frames
Format settings, CABAC : Yes
Format settings, Reference frames : 4 frames
Codec ID : V_MPEG4/ISO/AVC
Duration : 1 h 35 min
Bit rate : 2 182 kb/s
Width : 1 280 pixels
Height : 688 pixels
Display aspect ratio : 1.85:1
Frame rate mode : Constant
Frame rate : 23.976 (24000/1001) FPS
Color space : YUV
Chroma subsampling : 4:2:0
Bit depth : 8 bits
Scan type : Progressive
Bits/(Pixel*Frame) : 0.103
Stream size : 1.45 GiB (63%)
Title : MiCineHD.com
Writing library : x264 core 164 r3065+9 7a0e6e8 [Mod by Patman]
Encoding settings : cabac=1 / ref=3 / deblock=1:0:0 / analyse=0x3:0x113 / me=hex / subme=7 / psy=0 / mixed_ref=1 / me_range=16 / chroma_me=1 / trellis=1 / 8x8dct=1 / cqm=0 / deadzone=21,11 / fast_pskip=1 / chroma_qp_offset=0 / threads=18 / lookahead_threads=3 / sliced_threads=0 / nr=0 / decimate=1 / interlaced=0 / bluray_compat=0 / constrained_intra=0 / bframes=3 / b_pyramid=2 / b_adapt=1 / b_bias=0 / direct=1 / weightb=1 / open_gop=0 / weightp=2 / keyint=250 / keyint_min=23 / scenecut=40 / intra_refresh=0 / rc_lookahead=40 / rc=crf / mbtree=1 / crf=20.0 / qcomp=0.60 / qpmin=0 / qpmax=69 / qpstep=4 / ip_ratio=1.40 / aq=2:1.00
Default : Yes
Forced : No

Audio #1
ID : 2
Format : AC-3
Format/Info : Audio Coding 3
Commercial name : Dolby Digital
Codec ID : A_AC3
Duration : 1 h 35 min
Bit rate mode : Constant
Bit rate : 576 kb/s
Channel(s) : 6 channels
Channel layout : L R C LFE Ls Rs
Sampling rate : 48.0 kHz
Frame rate : 31.250 FPS (1536 SPF)
Compression mode : Lossy
Stream size : 392 MiB (17%)
Title : MiCineHD.com
Language : Spanish
Service kind : Complete Main
Default : No
Forced : No

Audio #2
ID : 3
Format : AC-3
Format/Info : Audio Coding 3
Commercial name : Dolby Digital
Codec ID : A_AC3
Duration : 1 h 35 min
Bit rate mode : Constant
Bit rate : 640 kb/s
Channel(s) : 6 channels
Channel layout : L R C LFE Ls Rs
Sampling rate : 48.0 kHz
Frame rate : 31.250 FPS (1536 SPF)
Compression mode : Lossy
Stream size : 436 MiB (18%)
Title : MiCineHD.com
Language : English
Service kind : Complete Main
Default : No
Forced : No

Text #1
ID : 4
Format : UTF-8
Codec ID : S_TEXT/UTF8
Codec ID/Info : UTF-8 Plain Text
Title : MiCineHD.com
Language : Spanish
Default : No
Forced : No

Text #2
ID : 5
Format : UTF-8
Codec ID : S_TEXT/UTF8
Codec ID/Info : UTF-8 Plain Text
Title : MiCineHD.com
Language : English
Default : No
Forced : No

Text #3
ID : 6
Format : PGS
Muxing mode : zlib
Codec ID : S_HDMV/PGS
Codec ID/Info : Picture based subtitle format used on BDs/HD-DVDs
Title : MiCineHD.com
Language : Spanish
Default : No
Forced : No

Text #4
ID : 7
Format : PGS
Muxing mode : zlib
Codec ID : S_HDMV/PGS
Codec ID/Info : Picture based subtitle format used on BDs/HD-DVDs
Title : MiCineHD.com
Language : English
Default : No
Forced : No

Menu
00:00:00.000 : Chapter 01
00:02:27.897 : Chapter 02
00:06:27.220 : Chapter 03
00:08:29.884 : Chapter 04
00:11:19.512 : Chapter 05
00:14:35.291 : Chapter 06
00:16:30.197 : Chapter 07
00:17:07.735 : Chapter 08
00:21:19.486 : Chapter 09
00:23:31.993 : Chapter 10
00:26:01.393 : Chapter 11
00:28:11.815 : Chapter 12
00:32:55.515 : Chapter 13
00:35:39.971 : Chapter 14
00:37:29.372 : Chapter 15
00:41:38.204 : Chapter 16
00:42:25.876 : Chapter 17
00:45:04.118 : Chapter 18
00:46:06.680 : Chapter 19
00:48:53.639 : Chapter 20
00:51:00.098 : Chapter 21
00:52:04.746 : Chapter 22
00:54:33.561 : Chapter 23
00:56:18.833 : Chapter 24
00:58:30.340 : Chapter 25
01:00:07.520 : Chapter 26
01:00:43.598 : Chapter 27
01:02:10.059 : Chapter 28
01:04:51.929 : Chapter 29
01:06:49.088 : Chapter 30
01:09:33.836 : Chapter 31
01:13:19.978 : Chapter 32
01:16:47.477 : Chapter 33
01:19:33.477 : Chapter 34
01:20:53.723 : Chapter 35
01:24:34.944 : Chapter 36
01:33:41.532 : Chapter 37



Reportar Error Visitas: 55