Links Vip MCHD

Contenido privado

Todo aporte con enlaces de GDrive que pida permiso para descargar, se perdió, debido a que Google baneó múltiples cuentas, por lo tanto esos archivos están inaccesibles para descargar

Todos los enlaces rar son intercambiables

Problemas de contraseña o archivo dañado? repara siguiendo esta guía

Un Lugar en Silencio (2018)

Format : Matroska
Format version : Version 4
File size : 3.83 GiB
Duration : 1 h 30 min
Overall bit rate mode : Variable
Overall bit rate : 6 083 kb/s
Movie name : A Quiet Place (2018 - MiCineHD.com by CharlX
Encoded date : UTC 2021-07-07 04:31:54
Writing application : mkvmerge v56.1.0 ('My Friend') 64-bit
Writing library : libebml v1.4.2 + libmatroska v1.6.4
Cover : Yes
Attachments : cover.jpg
Aporte exclusivo para : MiCineHD.com
Encoder | Uploader : CharlX

Video
ID : 1
Format : AVC
Format/Info : Advanced Video Codec
Format profile : High@L4.1
Format settings : CABAC / 4 Ref Frames
Format settings, CABAC : Yes
Format settings, Reference : 4 frames
Codec ID : V_MPEG4/ISO/AVC
Duration : 1 h 30 min
Bit rate mode : Variable
Bit rate : 5 000 kb/s
Maximum bit rate : 20.0 Mb/s
Width : 1 920 pixels
Height : 1 080 pixels
Display aspect ratio : 16:9
Frame rate mode : Constant
Frame rate : 23.976 (24000/1001) FPS
Color space : YUV
Chroma subsampling : 4:2:0
Bit depth : 8 bits
Scan type : Progressive
Bits/(Pixel*Frame) : 0.101
Stream size : 3.02 GiB (79%)
Title : MiCineHD.com by CharlX
Writing library : x264 core 157 r2935 545de2f
Encoding settings : cabac=1 / ref=4 / deblock=1:0:0 / analyse=0x3:0x133 / me=umh / subme=10 / psy=1 / psy_rd=1.00:0.00 / mixed_ref=1 / me_range=24 / chroma_me=1 / trellis=2 / 8x8dct=1 / cqm=0 / deadzone=21,11 / fast_pskip=1 / chroma_qp_offset=-2 / threads=18 / lookahead_threads=3 / sliced_threads=0 / nr=0 / decimate=1 / interlaced=0 / bluray_compat=0 / constrained_intra=0 / bframes=8 / b_pyramid=2 / b_adapt=2 / b_bias=0 / direct=3 / weightb=1 / open_gop=0 / weightp=2 / keyint=240 / keyint_min=24 / scenecut=40 / intra_refresh=0 / rc_lookahead=60 / rc=abr / mbtree=1 / bitrate=5000 / ratetol=1.0 / qcomp=0.60 / qpmin=0 / qpmax=69 / qpstep=4 / vbv_maxrate=20000 / vbv_bufsize=25000 / nal_hrd=vbr / filler=0 / ip_ratio=1.40 / aq=1:1.00
Language : English
Default : Yes
Forced : No
Color range : Limited
Color primaries : BT.709
Transfer characteristics : BT.709
Matrix coefficients : BT.709

Audio #1
ID : 2
ID in the original source m : 4354 (0x1102)
Format : AC-3
Format/Info : Audio Coding 3
Commercial name : Dolby Digital
Codec ID : A_AC3
Duration : 1 h 30 min
Bit rate mode : Constant
Bit rate : 640 kb/s
Channel(s) : 6 channels
Channel layout : L R C LFE Ls Rs
Sampling rate : 48.0 kHz
Frame rate : 31.250 FPS (1536 SPF)
Compression mode : Lossy
Stream size : 413 MiB (11%)
Title : Español Latino [AC3 5.1]
Language : Spanish
Service kind : Complete Main
Default : Yes
Forced : No
Original source medium : Blu-ray

Audio #2
ID : 3
ID in the original source m : 4352 (0x1100)
Format : AC-3
Format/Info : Audio Coding 3
Commercial name : Dolby Digital
Format settings : Dolby Surround EX
Codec ID : A_AC3
Duration : 1 h 30 min
Bit rate mode : Constant
Bit rate : 640 kb/s
Channel(s) : 6 channels
Channel layout : L R C LFE Ls Rs
Sampling rate : 48.0 kHz
Frame rate : 31.250 FPS (1536 SPF)
Compression mode : Lossy
Stream size : 413 MiB (11%)
Title : English [AC3 Core 5.1]
Language : English
Service kind : Complete Main
Default : No
Forced : No
Original source medium : Blu-ray

Text #1
ID : 4
Format : UTF-8
Codec ID : S_TEXT/UTF8
Codec ID/Info : UTF-8 Plain Text
Duration : 1 h 19 min
Bit rate : 4 b/s
Count of elements : 132
Stream size : 2.48 KiB (0%)
Title : Forzados [SRT]
Language : Spanish
Default : No
Forced : Yes

Text #2
ID : 5
Format : UTF-8
Codec ID : S_TEXT/UTF8
Codec ID/Info : UTF-8 Plain Text
Duration : 1 h 19 min
Bit rate : 6 b/s
Count of elements : 184
Stream size : 3.57 KiB (0%)
Title : Español Latino [SRT]
Language : Spanish
Default : No
Forced : No

Text #3
ID : 6
ID in the original source m : 4611 (0x1203)
Format : PGS
Muxing mode : zlib
Codec ID : S_HDMV/PGS
Codec ID/Info : Picture based subtitle format used on BDs/HD-DVDs
Duration : 1 h 19 min
Bit rate : 1 635 b/s
Count of elements : 236
Stream size : 957 KiB (0%)
Title : Forzados [PGS]
Language : Spanish
Default : Yes
Forced : Yes
Original source medium : Blu-ray

Text #4
ID : 7
ID in the original source m : 4611 (0x1203)
Format : PGS
Muxing mode : zlib
Codec ID : S_HDMV/PGS
Codec ID/Info : Picture based subtitle format used on BDs/HD-DVDs
Duration : 1 h 19 min
Bit rate : 2 345 b/s
Count of elements : 340
Stream size : 1.34 MiB (0%)
Title : Español Latino [PGS]
Language : Spanish
Default : No
Forced : No
Original source medium : Blu-ray

Text #5
ID : 8
ID in the original source m : 4608 (0x1200)
Format : PGS
Muxing mode : zlib
Codec ID : S_HDMV/PGS
Codec ID/Info : Picture based subtitle format used on BDs/HD-DVDs
Duration : 1 h 11 min
Bit rate : 2 139 b/s
Count of elements : 302
Stream size : 1.10 MiB (0%)
Title : English [PGS]
Language : English
Default : No
Forced : No
Original source medium : Blu-ray

Text #6
ID : 9
ID in the original source m : 4609 (0x1201)
Format : PGS
Muxing mode : zlib
Codec ID : S_HDMV/PGS
Codec ID/Info : Picture based subtitle format used on BDs/HD-DVDs
Duration : 1 h 22 min
Bit rate : 4 370 b/s
Count of elements : 652
Stream size : 2.57 MiB (0%)
Title : English SDH [PGS]
Language : English
Default : No
Forced : No
Original source medium : Blu-ray

Menu
00:00:00.000 : Chapter 01
00:10:19.160 : Chapter 02
00:14:38.043 : Chapter 03
00:21:52.936 : Chapter 04
00:25:09.716 : Chapter 05
00:31:05.196 : Chapter 06
00:36:23.431 : Chapter 07
00:43:47.333 : Chapter 08
00:47:42.734 : Chapter 09
00:53:48.225 : Chapter 10
01:00:31.461 : Chapter 11
01:05:55.409 : Chapter 12
01:10:57.878 : Chapter 13
01:15:29.149 : Chapter 14
01:23:47.313 : Chapter 15
Format : Matroska
Format version : Version 4
File size : 1.74 GiB
Duration : 1 h 30 min
Overall bit rate mode : Variable
Overall bit rate : 2 766 kb/s
Movie name : A Quiet Place (2018 - MiCineHD.com by CharlX
Encoded date : UTC 2021-07-07 04:33:09
Writing application : mkvmerge v56.1.0 ('My Friend') 64-bit
Writing library : libebml v1.4.2 + libmatroska v1.6.4
Cover : Yes
Attachments : cover.jpg
Aporte exclusivo para : MiCineHD.com
Encoder | Uploader : CharlX

Video
ID : 1
Format : AVC
Format/Info : Advanced Video Codec
Format profile : High@L4.1
Format settings : CABAC / 5 Ref Frames
Format settings, CABAC : Yes
Format settings, Reference : 5 frames
Codec ID : V_MPEG4/ISO/AVC
Duration : 1 h 30 min
Bit rate mode : Variable
Bit rate : 1 500 kb/s
Maximum bit rate : 10 000 kb/s
Width : 1 280 pixels
Height : 720 pixels
Display aspect ratio : 16:9
Frame rate mode : Constant
Frame rate : 23.976 (24000/1001) FPS
Color space : YUV
Chroma subsampling : 4:2:0
Bit depth : 8 bits
Scan type : Progressive
Bits/(Pixel*Frame) : 0.068
Stream size : 955 MiB (54%)
Title : MiCineHD.com by CharlX
Writing library : x264 core 157 r2935 545de2f
Encoding settings : cabac=1 / ref=5 / deblock=1:0:0 / analyse=0x3:0x113 / me=hex / subme=8 / psy=1 / psy_rd=1.00:0.00 / mixed_ref=1 / me_range=16 / chroma_me=1 / trellis=2 / 8x8dct=1 / cqm=0 / deadzone=21,11 / fast_pskip=1 / chroma_qp_offset=-2 / threads=18 / lookahead_threads=3 / sliced_threads=0 / nr=0 / decimate=1 / interlaced=0 / bluray_compat=0 / constrained_intra=0 / bframes=3 / b_pyramid=2 / b_adapt=1 / b_bias=0 / direct=3 / weightb=1 / open_gop=0 / weightp=2 / keyint=240 / keyint_min=24 / scenecut=40 / intra_refresh=0 / rc_lookahead=50 / rc=abr / mbtree=1 / bitrate=1500 / ratetol=1.0 / qcomp=0.60 / qpmin=0 / qpmax=69 / qpstep=4 / vbv_maxrate=10000 / vbv_bufsize=12500 / nal_hrd=vbr / filler=0 / ip_ratio=1.40 / aq=1:1.00
Language : English
Default : Yes
Forced : No
Color range : Limited
Color primaries : BT.709
Transfer characteristics : BT.709
Matrix coefficients : BT.709

Audio #1
ID : 2
ID in the original source m : 4354 (0x1102)
Format : AC-3
Format/Info : Audio Coding 3
Commercial name : Dolby Digital
Codec ID : A_AC3
Duration : 1 h 30 min
Bit rate mode : Constant
Bit rate : 640 kb/s
Channel(s) : 6 channels
Channel layout : L R C LFE Ls Rs
Sampling rate : 48.0 kHz
Frame rate : 31.250 FPS (1536 SPF)
Compression mode : Lossy
Stream size : 413 MiB (23%)
Title : Español Latino [AC3 5.1]
Language : Spanish
Service kind : Complete Main
Default : Yes
Forced : No
Original source medium : Blu-ray

Audio #2
ID : 3
ID in the original source m : 4352 (0x1100)
Format : AC-3
Format/Info : Audio Coding 3
Commercial name : Dolby Digital
Format settings : Dolby Surround EX
Codec ID : A_AC3
Duration : 1 h 30 min
Bit rate mode : Constant
Bit rate : 640 kb/s
Channel(s) : 6 channels
Channel layout : L R C LFE Ls Rs
Sampling rate : 48.0 kHz
Frame rate : 31.250 FPS (1536 SPF)
Compression mode : Lossy
Stream size : 413 MiB (23%)
Title : English [AC3 Core 5.1]
Language : English
Service kind : Complete Main
Default : No
Forced : No
Original source medium : Blu-ray

Text #1
ID : 4
Format : UTF-8
Codec ID : S_TEXT/UTF8
Codec ID/Info : UTF-8 Plain Text
Duration : 1 h 19 min
Bit rate : 4 b/s
Count of elements : 132
Stream size : 2.48 KiB (0%)
Title : Forzados [SRT]
Language : Spanish
Default : No
Forced : Yes

Text #2
ID : 5
Format : UTF-8
Codec ID : S_TEXT/UTF8
Codec ID/Info : UTF-8 Plain Text
Duration : 1 h 19 min
Bit rate : 6 b/s
Count of elements : 184
Stream size : 3.57 KiB (0%)
Title : Español Latino [SRT]
Language : Spanish
Default : No
Forced : No

Text #3
ID : 6
ID in the original source m : 4611 (0x1203)
Format : PGS
Muxing mode : zlib
Codec ID : S_HDMV/PGS
Codec ID/Info : Picture based subtitle format used on BDs/HD-DVDs
Duration : 1 h 19 min
Bit rate : 1 635 b/s
Count of elements : 236
Stream size : 957 KiB (0%)
Title : Forzados [PGS]
Language : Spanish
Default : Yes
Forced : Yes
Original source medium : Blu-ray

Text #4
ID : 7
ID in the original source m : 4611 (0x1203)
Format : PGS
Muxing mode : zlib
Codec ID : S_HDMV/PGS
Codec ID/Info : Picture based subtitle format used on BDs/HD-DVDs
Duration : 1 h 19 min
Bit rate : 2 345 b/s
Count of elements : 340
Stream size : 1.34 MiB (0%)
Title : Español Latino [PGS]
Language : Spanish
Default : No
Forced : No
Original source medium : Blu-ray

Text #5
ID : 8
ID in the original source m : 4608 (0x1200)
Format : PGS
Muxing mode : zlib
Codec ID : S_HDMV/PGS
Codec ID/Info : Picture based subtitle format used on BDs/HD-DVDs
Duration : 1 h 11 min
Bit rate : 2 139 b/s
Count of elements : 302
Stream size : 1.10 MiB (0%)
Title : English [PGS]
Language : English
Default : No
Forced : No
Original source medium : Blu-ray

Text #6
ID : 9
ID in the original source m : 4609 (0x1201)
Format : PGS
Muxing mode : zlib
Codec ID : S_HDMV/PGS
Codec ID/Info : Picture based subtitle format used on BDs/HD-DVDs
Duration : 1 h 22 min
Bit rate : 4 370 b/s
Count of elements : 652
Stream size : 2.57 MiB (0%)
Title : English SDH [PGS]
Language : English
Default : No
Forced : No
Original source medium : Blu-ray

Menu
00:00:00.000 : Chapter 01
00:10:19.160 : Chapter 02
00:14:38.043 : Chapter 03
00:21:52.936 : Chapter 04
00:25:09.716 : Chapter 05
00:31:05.196 : Chapter 06
00:36:23.431 : Chapter 07
00:43:47.333 : Chapter 08
00:47:42.734 : Chapter 09
00:53:48.225 : Chapter 10
01:00:31.461 : Chapter 11
01:05:55.409 : Chapter 12
01:10:57.878 : Chapter 13
01:15:29.149 : Chapter 14
01:23:47.313 : Chapter 15
Format : Matroska
Format version : Version 2
File size : 18.6 GiB
Duration : 1 h 30 min
Overall bit rate mode : Variable
Overall bit rate : 29.5 Mb/s
Movie name : A Quiet Place
Encoded date : UTC 2021-07-06 19:47:33
Writing application : MakeMKV v1.16.3 win(x64-release)
Writing library : libmakemkv v1.16.3 (1.3.10/1.5.2) win(x64-release)
Cover : Yes
Attachments : cover.jpg

Video
ID : 1
ID in the original source m : 4113 (0x1011)
Format : AVC
Format/Info : Advanced Video Codec
Format profile : High@L4.1
Format settings : CABAC / 4 Ref Frames
Format settings, CABAC : Yes
Format settings, Reference : 4 frames
Codec ID : V_MPEG4/ISO/AVC
Duration : 1 h 30 min
Bit rate mode : Variable
Bit rate : 24.3 Mb/s
Maximum bit rate : 27.0 Mb/s
Width : 1 920 pixels
Height : 1 080 pixels
Display aspect ratio : 16:9
Frame rate mode : Constant
Frame rate : 23.976 (24000/1001) FPS
Color space : YUV
Chroma subsampling : 4:2:0
Bit depth : 8 bits
Scan type : Progressive
Bits/(Pixel*Frame) : 0.489
Stream size : 15.3 GiB (82%)
Language : English
Default : No
Forced : No
Original source medium : Blu-ray

Audio #1
ID : 2
ID in the original source m : 4354 (0x1102)
Format : AC-3
Format/Info : Audio Coding 3
Commercial name : Dolby Digital
Codec ID : A_AC3
Duration : 1 h 30 min
Bit rate mode : Constant
Bit rate : 640 kb/s
Channel(s) : 6 channels
Channel layout : L R C LFE Ls Rs
Sampling rate : 48.0 kHz
Frame rate : 31.250 FPS (1536 SPF)
Compression mode : Lossy
Stream size : 413 MiB (2%)
Title : Surround 5.1
Language : Spanish
Service kind : Complete Main
Default : Yes
Forced : No
Original source medium : Blu-ray

Audio #2
ID : 3
ID in the original source m : 4352 (0x1100)
Format : MLP FBA 16-ch
Format/Info : Meridian Lossless Packing FBA with 16-channel presentation
Commercial name : Dolby TrueHD with Dolby Atmos
Codec ID : A_TRUEHD
Duration : 1 h 30 min
Bit rate mode : Variable
Bit rate : 3 890 kb/s
Maximum bit rate : 8 064 kb/s
Channel(s) : 8 channels
Channel layout : L R C LFE Ls Rs Lb Rb
Sampling rate : 48.0 kHz
Frame rate : 1 200.000 FPS (40 SPF)
Bit depth : 24 bits
Compression mode : Lossless
Stream size : 2.45 GiB (13%)
Title : Surround 7.1
Language : English
Default : No
Forced : No
Original source medium : Blu-ray
Number of dynamic objects : 11
Bed channel count : 1 channel
Bed channel configuration : LFE

Audio #3
ID : 4
ID in the original source m : 4352 (0x1100)
Format : AC-3
Format/Info : Audio Coding 3
Commercial name : Dolby Digital
Format settings : Dolby Surround EX
Codec ID : A_AC3
Duration : 1 h 30 min
Bit rate mode : Constant
Bit rate : 640 kb/s
Channel(s) : 6 channels
Channel layout : L R C LFE Ls Rs
Sampling rate : 48.0 kHz
Frame rate : 31.250 FPS (1536 SPF)
Compression mode : Lossy
Stream size : 413 MiB (2%)
Title : Surround 5.1
Language : English
Service kind : Complete Main
Default : No
Forced : No
Original source medium : Blu-ray

Text #1
ID : 5
ID in the original source m : 4611 (0x1203)
Format : PGS
Codec ID : S_HDMV/PGS
Codec ID/Info : Picture based subtitle format used on BDs/HD-DVDs
Duration : 1 h 19 min
Bit rate : 2 345 b/s
Count of elements : 340
Stream size : 1.34 MiB (0%)
Language : Spanish
Default : No
Forced : No
Original source medium : Blu-ray

Text #2
ID : 6
ID in the original source m : 4611 (0x1203)
Format : PGS
Codec ID : S_HDMV/PGS
Codec ID/Info : Picture based subtitle format used on BDs/HD-DVDs
Duration : 1 h 19 min
Bit rate : 1 635 b/s
Count of elements : 236
Stream size : 957 KiB (0%)
Language : Spanish
Default : Yes
Forced : No
Original source medium : Blu-ray

Text #3
ID : 7
ID in the original source m : 4608 (0x1200)
Format : PGS
Codec ID : S_HDMV/PGS
Codec ID/Info : Picture based subtitle format used on BDs/HD-DVDs
Duration : 1 h 11 min
Bit rate : 2 139 b/s
Count of elements : 302
Stream size : 1.10 MiB (0%)
Language : English
Default : No
Forced : No
Original source medium : Blu-ray

Text #4
ID : 8
ID in the original source m : 4609 (0x1201)
Format : PGS
Codec ID : S_HDMV/PGS
Codec ID/Info : Picture based subtitle format used on BDs/HD-DVDs
Duration : 1 h 22 min
Bit rate : 4 370 b/s
Count of elements : 652
Stream size : 2.57 MiB (0%)
Language : English
Default : No
Forced : No
Original source medium : Blu-ray

Menu
00:00:00.000 : en:Chapter 01
00:10:19.160 : en:Chapter 02
00:14:38.043 : en:Chapter 03
00:21:52.936 : en:Chapter 04
00:25:09.716 : en:Chapter 05
00:31:05.196 : en:Chapter 06
00:36:23.431 : en:Chapter 07
00:43:47.333 : en:Chapter 08
00:47:42.734 : en:Chapter 09
00:53:48.225 : en:Chapter 10
01:00:31.461 : en:Chapter 11
01:05:55.409 : en:Chapter 12
01:10:57.878 : en:Chapter 13
01:15:29.149 : en:Chapter 14
01:23:47.313 : en:Chapter 15
Format : Matroska
Format version : Version 4
File size : 4.81 GiB
Duration : 1 h 30 min
Overall bit rate : 7 627 kb/s
Movie name : A Quiet Place (2018 - MiCineHD.com by CharlX
Encoded date : UTC 2021-07-07 04:34:00
Writing application : mkvmerge v56.1.0 ('My Friend') 64-bit
Writing library : libebml v1.4.2 + libmatroska v1.6.4
Cover : Yes
Attachments : cover.jpg
Aporte exclusivo para : MiCineHD.com
Encoder | Uploader : CharlX

Video
ID : 1
Format : AVC
Format/Info : Advanced Video Codec
Format profile : High@L4.1
Format settings : CABAC / 4 Ref Frames
Format settings, CABAC : Yes
Format settings, Reference : 4 frames
Codec ID : V_MPEG4/ISO/AVC
Duration : 1 h 30 min
Bit rate : 6 342 kb/s
Width : 1 920 pixels
Height : 1 080 pixels
Display aspect ratio : 16:9
Frame rate mode : Constant
Frame rate : 23.976 (24000/1001) FPS
Color space : YUV
Chroma subsampling : 4:2:0
Bit depth : 8 bits
Scan type : Progressive
Bits/(Pixel*Frame) : 0.128
Stream size : 4.00 GiB (83%)
Title : MiCineHD.com by CharlX
Writing library : x264 core 157 r2935 545de2f
Encoding settings : cabac=1 / ref=4 / deblock=1:0:0 / analyse=0x3:0x133 / me=tesa / subme=11 / psy=1 / psy_rd=1.00:0.00 / mixed_ref=1 / me_range=24 / chroma_me=1 / trellis=2 / 8x8dct=1 / cqm=0 / deadzone=21,11 / fast_pskip=0 / chroma_qp_offset=-2 / threads=18 / lookahead_threads=4 / sliced_threads=0 / nr=0 / decimate=1 / interlaced=0 / bluray_compat=0 / constrained_intra=0 / bframes=16 / b_pyramid=2 / b_adapt=2 / b_bias=0 / direct=3 / weightb=1 / open_gop=0 / weightp=2 / keyint=240 / keyint_min=24 / scenecut=40 / intra_refresh=0 / rc_lookahead=60 / rc=crf / mbtree=1 / crf=19.0 / qcomp=0.60 / qpmin=0 / qpmax=69 / qpstep=4 / vbv_maxrate=62500 / vbv_bufsize=78125 / crf_max=0.0 / nal_hrd=none / filler=0 / ip_ratio=1.40 / aq=1:1.00
Language : English
Default : Yes
Forced : No
Color range : Limited
Color primaries : BT.709
Transfer characteristics : BT.709
Matrix coefficients : BT.709

Audio #1
ID : 2
ID in the original source m : 4354 (0x1102)
Format : AC-3
Format/Info : Audio Coding 3
Commercial name : Dolby Digital
Codec ID : A_AC3
Duration : 1 h 30 min
Bit rate mode : Constant
Bit rate : 640 kb/s
Channel(s) : 6 channels
Channel layout : L R C LFE Ls Rs
Sampling rate : 48.0 kHz
Frame rate : 31.250 FPS (1536 SPF)
Compression mode : Lossy
Stream size : 413 MiB (8%)
Title : Español Latino [AC3 5.1]
Language : Spanish
Service kind : Complete Main
Default : Yes
Forced : No
Original source medium : Blu-ray

Audio #2
ID : 3
ID in the original source m : 4352 (0x1100)
Format : AC-3
Format/Info : Audio Coding 3
Commercial name : Dolby Digital
Format settings : Dolby Surround EX
Codec ID : A_AC3
Duration : 1 h 30 min
Bit rate mode : Constant
Bit rate : 640 kb/s
Channel(s) : 6 channels
Channel layout : L R C LFE Ls Rs
Sampling rate : 48.0 kHz
Frame rate : 31.250 FPS (1536 SPF)
Compression mode : Lossy
Stream size : 413 MiB (8%)
Title : English [AC3 Core 5.1]
Language : English
Service kind : Complete Main
Default : No
Forced : No
Original source medium : Blu-ray

Text #1
ID : 4
Format : UTF-8
Codec ID : S_TEXT/UTF8
Codec ID/Info : UTF-8 Plain Text
Duration : 1 h 19 min
Bit rate : 4 b/s
Count of elements : 132
Stream size : 2.48 KiB (0%)
Title : Forzados [SRT]
Language : Spanish
Default : No
Forced : Yes

Text #2
ID : 5
Format : UTF-8
Codec ID : S_TEXT/UTF8
Codec ID/Info : UTF-8 Plain Text
Duration : 1 h 19 min
Bit rate : 6 b/s
Count of elements : 184
Stream size : 3.57 KiB (0%)
Title : Español Latino [SRT]
Language : Spanish
Default : No
Forced : No

Text #3
ID : 6
ID in the original source m : 4611 (0x1203)
Format : PGS
Muxing mode : zlib
Codec ID : S_HDMV/PGS
Codec ID/Info : Picture based subtitle format used on BDs/HD-DVDs
Duration : 1 h 19 min
Bit rate : 1 635 b/s
Count of elements : 236
Stream size : 957 KiB (0%)
Title : Forzados [PGS]
Language : Spanish
Default : Yes
Forced : Yes
Original source medium : Blu-ray

Text #4
ID : 7
ID in the original source m : 4611 (0x1203)
Format : PGS
Muxing mode : zlib
Codec ID : S_HDMV/PGS
Codec ID/Info : Picture based subtitle format used on BDs/HD-DVDs
Duration : 1 h 19 min
Bit rate : 2 345 b/s
Count of elements : 340
Stream size : 1.34 MiB (0%)
Title : Español Latino [PGS]
Language : Spanish
Default : No
Forced : No
Original source medium : Blu-ray

Text #5
ID : 8
ID in the original source m : 4608 (0x1200)
Format : PGS
Muxing mode : zlib
Codec ID : S_HDMV/PGS
Codec ID/Info : Picture based subtitle format used on BDs/HD-DVDs
Duration : 1 h 11 min
Bit rate : 2 139 b/s
Count of elements : 302
Stream size : 1.10 MiB (0%)
Title : English [PGS]
Language : English
Default : No
Forced : No
Original source medium : Blu-ray

Text #6
ID : 9
ID in the original source m : 4609 (0x1201)
Format : PGS
Muxing mode : zlib
Codec ID : S_HDMV/PGS
Codec ID/Info : Picture based subtitle format used on BDs/HD-DVDs
Duration : 1 h 22 min
Bit rate : 4 370 b/s
Count of elements : 652
Stream size : 2.57 MiB (0%)
Title : English SDH [PGS]
Language : English
Default : No
Forced : No
Original source medium : Blu-ray

Menu
00:00:00.000 : Chapter 01
00:10:19.160 : Chapter 02
00:14:38.043 : Chapter 03
00:21:52.936 : Chapter 04
00:25:09.716 : Chapter 05
00:31:05.196 : Chapter 06
00:36:23.431 : Chapter 07
00:43:47.333 : Chapter 08
00:47:42.734 : Chapter 09
00:53:48.225 : Chapter 10
01:00:31.461 : Chapter 11
01:05:55.409 : Chapter 12
01:10:57.878 : Chapter 13
01:15:29.149 : Chapter 14
01:23:47.313 : Chapter 15

Reportar Error Visitas: 84