Links Vip MCHD

Contenido privado

Todo aporte con enlaces de GDrive que pida permiso para descargar, se perdió, debido a que Google baneó múltiples cuentas, por lo tanto esos archivos están inaccesibles para descargar

Todos los enlaces rar son intercambiables

Problemas de contraseña o archivo dañado? repara siguiendo esta guía

El Amanecer De Los Muertos (2004)

Format : Matroska
Format version : Version 4
File size : 5.54 GiB
Duration : 1 h 49 min
Overall bit rate mode : Variable
Overall bit rate : 7 263 kb/s
Movie name : Dawn Of The Dead (2004) [Director's Cut] - MiCineHD.com by CharlX
Encoded date : UTC 2021-05-26 05:14:15
Writing application : mkvmerge v56.1.0 ('My Friend') 64-bit
Writing library : libebml v1.4.2 + libmatroska v1.6.4
Cover : Yes
Attachments : cover.jpg
Aporte exclusivo para : MiCineHD.com
Encoder | Uploader : CharlX

Video
ID : 1
Format : AVC
Format/Info : Advanced Video Codec
Format profile : High@L4.1
Format settings : CABAC / 4 Ref Frames
Format settings, CABAC : Yes
Format settings, Reference : 4 frames
Codec ID : V_MPEG4/ISO/AVC
Duration : 1 h 49 min
Bit rate mode : Variable
Bit rate : 5 000 kb/s
Maximum bit rate : 20.0 Mb/s
Width : 1 920 pixels
Height : 1 080 pixels
Display aspect ratio : 16:9
Frame rate mode : Constant
Frame rate : 23.976 (24000/1001) FPS
Color space : YUV
Chroma subsampling : 4:2:0
Bit depth : 8 bits
Scan type : Progressive
Bits/(Pixel*Frame) : 0.101
Stream size : 3.79 GiB (68%)
Title : MiCineHD.com by CharlX
Writing library : x264 core 157 r2935 545de2f
Encoding settings : cabac=1 / ref=4 / deblock=1:0:0 / analyse=0x3:0x133 / me=umh / subme=10 / psy=1 / psy_rd=1.00:0.00 / mixed_ref=1 / me_range=24 / chroma_me=1 / trellis=2 / 8x8dct=1 / cqm=0 / deadzone=21,11 / fast_pskip=1 / chroma_qp_offset=-2 / threads=18 / lookahead_threads=3 / sliced_threads=0 / nr=0 / decimate=1 / interlaced=0 / bluray_compat=0 / constrained_intra=0 / bframes=8 / b_pyramid=2 / b_adapt=2 / b_bias=0 / direct=3 / weightb=1 / open_gop=0 / weightp=2 / keyint=240 / keyint_min=24 / scenecut=40 / intra_refresh=0 / rc_lookahead=60 / rc=abr / mbtree=1 / bitrate=5000 / ratetol=1.0 / qcomp=0.60 / qpmin=0 / qpmax=69 / qpstep=4 / vbv_maxrate=20000 / vbv_bufsize=25000 / nal_hrd=vbr / filler=0 / ip_ratio=1.40 / aq=1:1.00
Language : English
Default : Yes
Forced : No
Color range : Limited
Color primaries : BT.709
Transfer characteristics : BT.709
Matrix coefficients : BT.709

Audio #1
ID : 2
ID in the original source m : 4357 (0x1105)
Format : DTS
Format/Info : Digital Theater Systems
Codec ID : A_DTS
Duration : 1 h 49 min
Bit rate mode : Constant
Bit rate : 768 kb/s
Channel(s) : 6 channels
Channel layout : C L R Ls Rs LFE
Sampling rate : 48.0 kHz
Frame rate : 93.750 FPS (512 SPF)
Bit depth : 24 bits
Compression mode : Lossy
Stream size : 600 MiB (11%)
Title : Español Latino [DTS 5.1]
Language : Spanish
Default : Yes
Forced : No
Original source medium : Blu-ray

Audio #2
ID : 3
ID in the original source m : 4352 (0x1100)
Format : DTS
Format/Info : Digital Theater Systems
Codec ID : A_DTS
Duration : 1 h 49 min
Bit rate mode : Constant
Bit rate : 1 509 kb/s
Channel(s) : 6 channels
Channel layout : C L R Ls Rs LFE
Sampling rate : 48.0 kHz
Frame rate : 93.750 FPS (512 SPF)
Bit depth : 24 bits
Compression mode : Lossy
Stream size : 1.15 GiB (21%)
Title : English [DTS Core 5.1]
Language : English
Default : No
Forced : No
Original source medium : Blu-ray

Text #1
ID : 4
Format : UTF-8
Codec ID : S_TEXT/UTF8
Codec ID/Info : UTF-8 Plain Text
Duration : 1 h 13 min
Bit rate : 0 b/s
Count of elements : 8
Stream size : 192 Bytes (0%)
Title : Forzados [SRT]
Language : Spanish
Default : No
Forced : Yes

Text #2
ID : 5
Format : UTF-8
Codec ID : S_TEXT/UTF8
Codec ID/Info : UTF-8 Plain Text
Duration : 1 h 46 min
Bit rate : 41 b/s
Count of elements : 938
Stream size : 32.5 KiB (0%)
Title : Español Latino [SRT]
Language : Spanish
Default : No
Forced : No

Text #3
ID : 6
ID in the original source m : 4625 (0x1211)
Format : PGS
Muxing mode : zlib
Codec ID : S_HDMV/PGS
Codec ID/Info : Picture based subtitle format used on BDs/HD-DVDs
Duration : 1 h 13 min
Bit rate : 259 b/s
Count of elements : 17
Stream size : 140 KiB (0%)
Title : Forzados [PGS]
Language : Spanish
Default : Yes
Forced : Yes
Original source medium : Blu-ray

Text #4
ID : 7
ID in the original source m : 4613 (0x1205)
Format : PGS
Muxing mode : zlib
Codec ID : S_HDMV/PGS
Codec ID/Info : Picture based subtitle format used on BDs/HD-DVDs
Duration : 1 h 46 min
Bit rate : 25.2 kb/s
Count of elements : 1879
Stream size : 19.2 MiB (0%)
Title : Español Latino [PGS]
Language : Spanish
Default : No
Forced : No
Original source medium : Blu-ray

Text #5
ID : 8
ID in the original source m : 4608 (0x1200)
Format : PGS
Muxing mode : zlib
Codec ID : S_HDMV/PGS
Codec ID/Info : Picture based subtitle format used on BDs/HD-DVDs
Duration : 1 h 46 min
Bit rate : 30.0 kb/s
Count of elements : 2238
Stream size : 22.9 MiB (0%)
Title : English SDH [PGS]
Language : English
Default : No
Forced : No
Original source medium : Blu-ray

Menu
00:00:00.000 : Chapter 01
00:04:29.352 : Chapter 02
00:10:38.888 : Chapter 03
00:13:15.586 : Chapter 04
00:19:43.223 : Chapter 05
00:23:27.280 : Chapter 06
00:26:35.594 : Chapter 07
00:33:07.026 : Chapter 08
00:42:28.003 : Chapter 09
00:47:35.561 : Chapter 10
00:56:29.511 : Chapter 11
01:01:36.526 : Chapter 12
01:08:48.415 : Chapter 13
01:15:22.643 : Chapter 14
01:20:16.895 : Chapter 15
01:24:15.133 : Chapter 16
01:30:03.481 : Chapter 17
01:33:27.560 : Chapter 18
01:39:47.690 : Chapter 19
01:44:36.770 : Chapter 20
Format : Matroska
Format version : Version 4
File size : 2.14 GiB
Duration : 1 h 49 min
Overall bit rate mode : Variable
Overall bit rate : 2 807 kb/s
Movie name : Dawn Of The Dead (2004) [Director's Cut] - MiCineHD.com by CharlX
Encoded date : UTC 2021-05-26 05:15:49
Writing application : mkvmerge v56.1.0 ('My Friend') 64-bit
Writing library : libebml v1.4.2 + libmatroska v1.6.4
Cover : Yes
Attachments : cover.jpg
Aporte exclusivo para : MiCineHD.com
Encoder | Uploader : CharlX

Video
ID : 1
Format : AVC
Format/Info : Advanced Video Codec
Format profile : High@L4.1
Format settings : CABAC / 5 Ref Frames
Format settings, CABAC : Yes
Format settings, Reference : 5 frames
Codec ID : V_MPEG4/ISO/AVC
Duration : 1 h 49 min
Bit rate mode : Variable
Bit rate : 1 500 kb/s
Maximum bit rate : 10 000 kb/s
Width : 1 280 pixels
Height : 720 pixels
Display aspect ratio : 16:9
Frame rate mode : Constant
Frame rate : 23.976 (24000/1001) FPS
Color space : YUV
Chroma subsampling : 4:2:0
Bit depth : 8 bits
Scan type : Progressive
Bits/(Pixel*Frame) : 0.068
Stream size : 1.15 GiB (54%)
Title : MiCineHD.com by CharlX
Writing library : x264 core 157 r2935 545de2f
Encoding settings : cabac=1 / ref=5 / deblock=1:0:0 / analyse=0x3:0x113 / me=hex / subme=8 / psy=1 / psy_rd=1.00:0.00 / mixed_ref=1 / me_range=16 / chroma_me=1 / trellis=2 / 8x8dct=1 / cqm=0 / deadzone=21,11 / fast_pskip=1 / chroma_qp_offset=-2 / threads=18 / lookahead_threads=3 / sliced_threads=0 / nr=0 / decimate=1 / interlaced=0 / bluray_compat=0 / constrained_intra=0 / bframes=3 / b_pyramid=2 / b_adapt=1 / b_bias=0 / direct=3 / weightb=1 / open_gop=0 / weightp=2 / keyint=240 / keyint_min=24 / scenecut=40 / intra_refresh=0 / rc_lookahead=50 / rc=abr / mbtree=1 / bitrate=1500 / ratetol=1.0 / qcomp=0.60 / qpmin=0 / qpmax=69 / qpstep=4 / vbv_maxrate=10000 / vbv_bufsize=12500 / nal_hrd=vbr / filler=0 / ip_ratio=1.40 / aq=1:1.00
Language : English
Default : Yes
Forced : No
Color range : Limited
Color primaries : BT.709
Transfer characteristics : BT.709
Matrix coefficients : BT.709

Audio #1
ID : 2
Format : AC-3
Format/Info : Audio Coding 3
Commercial name : Dolby Digital
Codec ID : A_AC3
Duration : 1 h 49 min
Bit rate mode : Constant
Bit rate : 640 kb/s
Channel(s) : 6 channels
Channel layout : L R C LFE Ls Rs
Sampling rate : 48.0 kHz
Frame rate : 31.250 FPS (1536 SPF)
Compression mode : Lossy
Stream size : 500 MiB (23%)
Title : Español Latino [AC3 5.1]
Language : Spanish
Service kind : Complete Main
Default : Yes
Forced : No

Audio #2
ID : 3
Format : AC-3
Format/Info : Audio Coding 3
Commercial name : Dolby Digital
Codec ID : A_AC3
Duration : 1 h 49 min
Bit rate mode : Constant
Bit rate : 640 kb/s
Channel(s) : 6 channels
Channel layout : L R C LFE Ls Rs
Sampling rate : 48.0 kHz
Frame rate : 31.250 FPS (1536 SPF)
Compression mode : Lossy
Stream size : 500 MiB (23%)
Title : English [AC3 5.1]
Language : English
Service kind : Complete Main
Default : No
Forced : No

Text #1
ID : 4
Format : UTF-8
Codec ID : S_TEXT/UTF8
Codec ID/Info : UTF-8 Plain Text
Duration : 1 h 13 min
Bit rate : 0 b/s
Count of elements : 8
Stream size : 192 Bytes (0%)
Title : Forzados [SRT]
Language : Spanish
Default : No
Forced : Yes

Text #2
ID : 5
Format : UTF-8
Codec ID : S_TEXT/UTF8
Codec ID/Info : UTF-8 Plain Text
Duration : 1 h 46 min
Bit rate : 41 b/s
Count of elements : 938
Stream size : 32.5 KiB (0%)
Title : Español Latino [SRT]
Language : Spanish
Default : No
Forced : No

Text #3
ID : 6
ID in the original source m : 4625 (0x1211)
Format : PGS
Muxing mode : zlib
Codec ID : S_HDMV/PGS
Codec ID/Info : Picture based subtitle format used on BDs/HD-DVDs
Duration : 1 h 13 min
Bit rate : 259 b/s
Count of elements : 17
Stream size : 140 KiB (0%)
Title : Forzados [PGS]
Language : Spanish
Default : Yes
Forced : Yes
Original source medium : Blu-ray

Text #4
ID : 7
ID in the original source m : 4613 (0x1205)
Format : PGS
Muxing mode : zlib
Codec ID : S_HDMV/PGS
Codec ID/Info : Picture based subtitle format used on BDs/HD-DVDs
Duration : 1 h 46 min
Bit rate : 25.2 kb/s
Count of elements : 1879
Stream size : 19.2 MiB (1%)
Title : Español Latino [PGS]
Language : Spanish
Default : No
Forced : No
Original source medium : Blu-ray

Text #5
ID : 8
ID in the original source m : 4608 (0x1200)
Format : PGS
Muxing mode : zlib
Codec ID : S_HDMV/PGS
Codec ID/Info : Picture based subtitle format used on BDs/HD-DVDs
Duration : 1 h 46 min
Bit rate : 30.0 kb/s
Count of elements : 2238
Stream size : 22.9 MiB (1%)
Title : English SDH [PGS]
Language : English
Default : No
Forced : No
Original source medium : Blu-ray

Menu
00:00:00.000 : Chapter 01
00:04:29.352 : Chapter 02
00:10:38.888 : Chapter 03
00:13:15.586 : Chapter 04
00:19:43.223 : Chapter 05
00:23:27.280 : Chapter 06
00:26:35.594 : Chapter 07
00:33:07.026 : Chapter 08
00:42:28.003 : Chapter 09
00:47:35.561 : Chapter 10
00:56:29.511 : Chapter 11
01:01:36.526 : Chapter 12
01:08:48.415 : Chapter 13
01:15:22.643 : Chapter 14
01:20:16.895 : Chapter 15
01:24:15.133 : Chapter 16
01:30:03.481 : Chapter 17
01:33:27.560 : Chapter 18
01:39:47.690 : Chapter 19
01:44:36.770 : Chapter 20
Format : Matroska
Format version : Version 4
File size : 18.1 GiB
Duration : 1 h 49 min
Overall bit rate mode : Variable
Overall bit rate : 23.7 Mb/s
Movie name : Dawn Of The Dead (2004) [Director's Cut] - MiCineHD.com by CharlX
Encoded date : UTC 2021-05-26 05:08:43
Writing application : mkvmerge v56.1.0 ('My Friend') 64-bit
Writing library : libebml v1.4.2 + libmatroska v1.6.4
Cover : Yes
Attachments : cover.jpg
Aporte exclusivo para : MiCineHD.com
Encoder | Uploader : CharlX

Video
ID : 1
ID in the original source m : 4113 (0x1011)
Format : VC-1
Format profile : Advanced@L3
Codec ID : V_MS/VFW/FOURCC / WVC1
Codec ID/Hint : Microsoft
Duration : 1 h 49 min
Bit rate : 17.1 Mb/s
Width : 1 920 pixels
Height : 1 080 pixels
Display aspect ratio : 16:9
Frame rate mode : Constant
Frame rate : 23.976 (24000/1001) FPS
Color space : YUV
Chroma subsampling : 4:2:0
Bit depth : 8 bits
Scan type : Progressive
Compression mode : Lossy
Bits/(Pixel*Frame) : 0.344
Stream size : 13.0 GiB (72%)
Title : MiCineHD.com by CharlX
Language : English
Default : No
Forced : No
Original source medium : Blu-ray

Audio #1
ID : 2
ID in the original source m : 4357 (0x1105)
Format : DTS
Format/Info : Digital Theater Systems
Codec ID : A_DTS
Duration : 1 h 49 min
Bit rate mode : Constant
Bit rate : 768 kb/s
Channel(s) : 6 channels
Channel layout : C L R Ls Rs LFE
Sampling rate : 48.0 kHz
Frame rate : 93.750 FPS (512 SPF)
Bit depth : 24 bits
Compression mode : Lossy
Stream size : 600 MiB (3%)
Title : Español Latino [DTS 5.1]
Language : Spanish
Default : Yes
Forced : No
Original source medium : Blu-ray

Audio #2
ID : 3
ID in the original source m : 4352 (0x1100)
Format : DTS XLL
Format/Info : Digital Theater Systems
Commercial name : DTS-HD Master Audio
Codec ID : A_DTS
Duration : 1 h 49 min
Bit rate mode : Variable
Bit rate : 4 289 kb/s
Channel(s) : 6 channels
Channel layout : C L R Ls Rs LFE
Sampling rate : 48.0 kHz
Frame rate : 93.750 FPS (512 SPF)
Bit depth : 24 bits
Compression mode : Lossless
Stream size : 3.27 GiB (18%)
Title : English [DTS-HD MA 5.1]
Language : English
Default : No
Forced : No
Original source medium : Blu-ray

Audio #3
ID : 4
ID in the original source m : 4352 (0x1100)
Format : DTS
Format/Info : Digital Theater Systems
Codec ID : A_DTS
Duration : 1 h 49 min
Bit rate mode : Constant
Bit rate : 1 509 kb/s
Channel(s) : 6 channels
Channel layout : C L R Ls Rs LFE
Sampling rate : 48.0 kHz
Frame rate : 93.750 FPS (512 SPF)
Bit depth : 24 bits
Compression mode : Lossy
Stream size : 1.15 GiB (6%)
Title : English [DTS Core 5.1]
Language : English
Default : No
Forced : No
Original source medium : Blu-ray

Text #1
ID : 5
Format : UTF-8
Codec ID : S_TEXT/UTF8
Codec ID/Info : UTF-8 Plain Text
Duration : 1 h 13 min
Bit rate : 0 b/s
Count of elements : 8
Stream size : 192 Bytes (0%)
Title : Forzados [SRT]
Language : Spanish
Default : No
Forced : Yes

Text #2
ID : 6
Format : UTF-8
Codec ID : S_TEXT/UTF8
Codec ID/Info : UTF-8 Plain Text
Duration : 1 h 46 min
Bit rate : 41 b/s
Count of elements : 938
Stream size : 32.5 KiB (0%)
Title : Español Latino [SRT]
Language : Spanish
Default : No
Forced : No

Text #3
ID : 7
ID in the original source m : 4625 (0x1211)
Format : PGS
Muxing mode : zlib
Codec ID : S_HDMV/PGS
Codec ID/Info : Picture based subtitle format used on BDs/HD-DVDs
Duration : 1 h 13 min
Bit rate : 259 b/s
Count of elements : 17
Stream size : 140 KiB (0%)
Title : Forzados [PGS]
Language : Spanish
Default : Yes
Forced : Yes
Original source medium : Blu-ray

Text #4
ID : 8
ID in the original source m : 4613 (0x1205)
Format : PGS
Muxing mode : zlib
Codec ID : S_HDMV/PGS
Codec ID/Info : Picture based subtitle format used on BDs/HD-DVDs
Duration : 1 h 46 min
Bit rate : 25.2 kb/s
Count of elements : 1879
Stream size : 19.2 MiB (0%)
Title : Español Latino [PGS]
Language : Spanish
Default : No
Forced : No
Original source medium : Blu-ray

Text #5
ID : 9
ID in the original source m : 4608 (0x1200)
Format : PGS
Muxing mode : zlib
Codec ID : S_HDMV/PGS
Codec ID/Info : Picture based subtitle format used on BDs/HD-DVDs
Duration : 1 h 46 min
Bit rate : 30.0 kb/s
Count of elements : 2238
Stream size : 22.9 MiB (0%)
Title : English SDH [PGS]
Language : English
Default : No
Forced : No
Original source medium : Blu-ray

Menu
00:00:00.000 : Chapter 01
00:04:29.352 : Chapter 02
00:10:38.888 : Chapter 03
00:13:15.586 : Chapter 04
00:19:43.223 : Chapter 05
00:23:27.280 : Chapter 06
00:26:35.594 : Chapter 07
00:33:07.026 : Chapter 08
00:42:28.003 : Chapter 09
00:47:35.561 : Chapter 10
00:56:29.511 : Chapter 11
01:01:36.526 : Chapter 12
01:08:48.415 : Chapter 13
01:15:22.643 : Chapter 14
01:20:16.895 : Chapter 15
01:24:15.133 : Chapter 16
01:30:03.481 : Chapter 17
01:33:27.560 : Chapter 18
01:39:47.690 : Chapter 19
01:44:36.770 : Chapter 20
Format : Matroska
Format version : Version 4
File size : 9.71 GiB
Duration : 1 h 49 min
Overall bit rate : 12.7 Mb/s
Movie name : Dawn Of The Dead (2004) [Director's Cut] - MiCineHD.com by CharlX
Encoded date : UTC 2021-05-26 05:12:21
Writing application : mkvmerge v56.1.0 ('My Friend') 64-bit
Writing library : libebml v1.4.2 + libmatroska v1.6.4
Cover : Yes
Attachments : cover.jpg
Aporte exclusivo para : MiCineHD.com
Encoder | Uploader : CharlX

Video
ID : 1
Format : AVC
Format/Info : Advanced Video Codec
Format profile : High@L4.1
Format settings : CABAC / 4 Ref Frames
Format settings, CABAC : Yes
Format settings, Reference : 4 frames
Codec ID : V_MPEG4/ISO/AVC
Duration : 1 h 49 min
Bit rate : 10.4 Mb/s
Width : 1 920 pixels
Height : 1 080 pixels
Display aspect ratio : 16:9
Frame rate mode : Constant
Frame rate : 23.976 (24000/1001) FPS
Color space : YUV
Chroma subsampling : 4:2:0
Bit depth : 8 bits
Scan type : Progressive
Bits/(Pixel*Frame) : 0.210
Stream size : 7.96 GiB (82%)
Title : MiCineHD.com by CharlX
Writing library : x264 core 157 r2935 545de2f
Encoding settings : cabac=1 / ref=4 / deblock=1:0:0 / analyse=0x3:0x133 / me=tesa / subme=11 / psy=1 / psy_rd=1.00:0.00 / mixed_ref=1 / me_range=24 / chroma_me=1 / trellis=2 / 8x8dct=1 / cqm=0 / deadzone=21,11 / fast_pskip=0 / chroma_qp_offset=-2 / threads=18 / lookahead_threads=4 / sliced_threads=0 / nr=0 / decimate=1 / interlaced=0 / bluray_compat=0 / constrained_intra=0 / bframes=16 / b_pyramid=2 / b_adapt=2 / b_bias=0 / direct=3 / weightb=1 / open_gop=0 / weightp=2 / keyint=240 / keyint_min=24 / scenecut=40 / intra_refresh=0 / rc_lookahead=60 / rc=crf / mbtree=1 / crf=19.0 / qcomp=0.60 / qpmin=0 / qpmax=69 / qpstep=4 / vbv_maxrate=62500 / vbv_bufsize=78125 / crf_max=0.0 / nal_hrd=none / filler=0 / ip_ratio=1.40 / aq=1:1.00
Language : English
Default : Yes
Forced : No
Color range : Limited
Color primaries : BT.709
Transfer characteristics : BT.709
Matrix coefficients : BT.709

Audio #1
ID : 2
ID in the original source m : 4357 (0x1105)
Format : DTS
Format/Info : Digital Theater Systems
Codec ID : A_DTS
Duration : 1 h 49 min
Bit rate mode : Constant
Bit rate : 768 kb/s
Channel(s) : 6 channels
Channel layout : C L R Ls Rs LFE
Sampling rate : 48.0 kHz
Frame rate : 93.750 FPS (512 SPF)
Bit depth : 24 bits
Compression mode : Lossy
Stream size : 600 MiB (6%)
Title : Español Latino [DTS 5.1]
Language : Spanish
Default : Yes
Forced : No
Original source medium : Blu-ray

Audio #2
ID : 3
ID in the original source m : 4352 (0x1100)
Format : DTS
Format/Info : Digital Theater Systems
Codec ID : A_DTS
Duration : 1 h 49 min
Bit rate mode : Constant
Bit rate : 1 509 kb/s
Channel(s) : 6 channels
Channel layout : C L R Ls Rs LFE
Sampling rate : 48.0 kHz
Frame rate : 93.750 FPS (512 SPF)
Bit depth : 24 bits
Compression mode : Lossy
Stream size : 1.15 GiB (12%)
Title : English [DTS Core 5.1]
Language : English
Default : No
Forced : No
Original source medium : Blu-ray

Text #1
ID : 4
Format : UTF-8
Codec ID : S_TEXT/UTF8
Codec ID/Info : UTF-8 Plain Text
Duration : 1 h 13 min
Bit rate : 0 b/s
Count of elements : 8
Stream size : 192 Bytes (0%)
Title : Forzados [SRT]
Language : Spanish
Default : No
Forced : Yes

Text #2
ID : 5
Format : UTF-8
Codec ID : S_TEXT/UTF8
Codec ID/Info : UTF-8 Plain Text
Duration : 1 h 46 min
Bit rate : 41 b/s
Count of elements : 938
Stream size : 32.5 KiB (0%)
Title : Español Latino [SRT]
Language : Spanish
Default : No
Forced : No

Text #3
ID : 6
ID in the original source m : 4625 (0x1211)
Format : PGS
Muxing mode : zlib
Codec ID : S_HDMV/PGS
Codec ID/Info : Picture based subtitle format used on BDs/HD-DVDs
Duration : 1 h 13 min
Bit rate : 259 b/s
Count of elements : 17
Stream size : 140 KiB (0%)
Title : Forzados [PGS]
Language : Spanish
Default : Yes
Forced : Yes
Original source medium : Blu-ray

Text #4
ID : 7
ID in the original source m : 4613 (0x1205)
Format : PGS
Muxing mode : zlib
Codec ID : S_HDMV/PGS
Codec ID/Info : Picture based subtitle format used on BDs/HD-DVDs
Duration : 1 h 46 min
Bit rate : 25.2 kb/s
Count of elements : 1879
Stream size : 19.2 MiB (0%)
Title : Español Latino [PGS]
Language : Spanish
Default : No
Forced : No
Original source medium : Blu-ray

Text #5
ID : 8
ID in the original source m : 4608 (0x1200)
Format : PGS
Muxing mode : zlib
Codec ID : S_HDMV/PGS
Codec ID/Info : Picture based subtitle format used on BDs/HD-DVDs
Duration : 1 h 46 min
Bit rate : 30.0 kb/s
Count of elements : 2238
Stream size : 22.9 MiB (0%)
Title : English SDH [PGS]
Language : English
Default : No
Forced : No
Original source medium : Blu-ray

Menu
00:00:00.000 : Chapter 01
00:04:29.352 : Chapter 02
00:10:38.888 : Chapter 03
00:13:15.586 : Chapter 04
00:19:43.223 : Chapter 05
00:23:27.280 : Chapter 06
00:26:35.594 : Chapter 07
00:33:07.026 : Chapter 08
00:42:28.003 : Chapter 09
00:47:35.561 : Chapter 10
00:56:29.511 : Chapter 11
01:01:36.526 : Chapter 12
01:08:48.415 : Chapter 13
01:15:22.643 : Chapter 14
01:20:16.895 : Chapter 15
01:24:15.133 : Chapter 16
01:30:03.481 : Chapter 17
01:33:27.560 : Chapter 18
01:39:47.690 : Chapter 19
01:44:36.770 : Chapter 20

Reportar Error Visitas: 128