Links Vip MCHD

Contenido privado

Todo aporte con enlaces de GDrive que pida permiso para descargar, se perdió, debido a que Google baneó múltiples cuentas, por lo tanto esos archivos están inaccesibles para descargar

Todos los enlaces rar son intercambiables

Problemas de contraseña o archivo dañado? repara siguiendo esta guía

La Liga de la Justicia de Zack Snyder (2021)

Format : Matroska
Format version : Version 4
File size : 7.02 GiB
Duration : 4 h 2 min
Overall bit rate : 4 143 kb/s
Encoded date : UTC 2021-03-17 13:38:06
Writing application : mkvmerge v53.0.0 ('Fool's Gold') 64-bit
Writing library : libebml v1.4.1 + libmatroska v1.6.2
Team : MiCinefilosHD - Cinéfilos Ripeos
Uploader : IgnacioHD
Web : www.micinehd.com

Video
ID : 1
Format : AVC
Format/Info : Advanced Video Codec
Format profile : High@L4
Format settings : CABAC / 1 Ref Frames
Format settings, CABAC : Yes
Format settings, Reference : 1 frame
Format settings, GOP : M=1, N=30
Codec ID : V_MPEG4/ISO/AVC
Duration : 4 h 2 min
Bit rate : 4 012 kb/s
Width : 1 920 pixels
Height : 1 080 pixels
Display aspect ratio : 16:9
Frame rate mode : Constant
Frame rate : 24.000 FPS
Color space : YUV
Chroma subsampling : 4:2:0
Bit depth : 8 bits
Scan type : Progressive
Bits/(Pixel*Frame) : 0.081
Stream size : 6.80 GiB (97%)
Default : Yes
Forced : No
Color range : Limited
Color primaries : BT.709
Transfer characteristics : BT.709
Matrix coefficients : BT.709

Audio
ID : 3
Format : AAC LC
Format/Info : Advanced Audio Codec Low Complexity
Codec ID : A_AAC-2
Duration : 4 h 2 min
Bit rate : 128 kb/s
Channel(s) : 2 channels
Channel layout : L R
Sampling rate : 44.1 kHz
Frame rate : 43.066 FPS (1024 SPF)
Compression mode : Lossy
Stream size : 222 MiB (3%)
Default : Yes
Forced : No

Text
ID : 2
Format : UTF-8
Codec ID : S_TEXT/UTF8
Codec ID/Info : UTF-8 Plain Text
Duration : 4 h 2 min
Bit rate : 34 b/s
Count of elements : 1901
Stream size : 61.5 KiB (0%)
Default : Yes
Forced : No

Format : Matroska
Format version : Version 4
File size : 15.9 GiB
Duration : 4 h 2 min
Overall bit rate mode : Variable
Overall bit rate : 9 376 kb/s
Encoded date : UTC 2021-03-18 08:42:19
Writing application : mkvmerge v53.0.0 ('Fool's Gold') 64-bit
Writing library : libebml v1.4.1 + libmatroska v1.6.2
Team : MiCinefilosHD - Cinéfilos Ripeos
Uploader : IgnacioHD
Web : www.micinehd.com

Video
ID : 1
Format : AVC
Format/Info : Advanced Video Codec
Format profile : High@L4
Format settings : CABAC / 4 Ref Frames
Format settings, CABAC : Yes
Format settings, Reference : 4 frames
Codec ID : V_MPEG4/ISO/AVC
Duration : 4 h 2 min
Bit rate mode : Variable
Bit rate : 8 221 kb/s
Maximum bit rate : 12.4 Mb/s
Width : 1 920 pixels
Height : 1 080 pixels
Display aspect ratio : 16:9
Frame rate mode : Constant
Frame rate : 23.976 (24000/1001) FPS
Color space : YUV
Chroma subsampling : 4:2:0
Bit depth : 8 bits
Scan type : Progressive
Bits/(Pixel*Frame) : 0.165
Stream size : 13.9 GiB (88%)
Title : micinehd.com
Default : Yes
Forced : No
Color range : Limited
Color primaries : BT.709
Transfer characteristics : BT.709
Matrix coefficients : BT.709

Audio #1
ID : 2
Format : AC-3
Format/Info : Audio Coding 3
Commercial name : Dolby Digital
Codec ID : A_AC3
Duration : 4 h 2 min
Bit rate mode : Constant
Bit rate : 384 kb/s
Channel(s) : 6 channels
Channel layout : L R C LFE Ls Rs
Sampling rate : 48.0 kHz
Frame rate : 31.250 FPS (1536 SPF)
Compression mode : Lossy
Stream size : 665 MiB (4%)
Title : Latino [AC3 5.1]
Language : Spanish
Service kind : Complete Main
Default : Yes
Forced : No

Audio #2
ID : 3
Format : E-AC-3 JOC
Format/Info : Enhanced AC-3 with Joint Object Coding
Commercial name : Dolby Digital Plus with Dolby Atmos
Codec ID : A_EAC3
Duration : 4 h 2 min
Bit rate mode : Constant
Bit rate : 768 kb/s
Channel(s) : 6 channels
Channel layout : L R C LFE Ls Rs
Sampling rate : 48.0 kHz
Frame rate : 31.250 FPS (1536 SPF)
Compression mode : Lossy
Stream size : 1.30 GiB (8%)
Title : English [EAC3 ,5.1]
Language : English
Service kind : Complete Main
Default : No
Forced : No
Complexity index : 16
Number of dynamic objects : 15
Bed channel count : 1 channel
Bed channel configuration : LFE

Text #1
ID : 4
Format : UTF-8
Codec ID : S_TEXT/UTF8
Codec ID/Info : UTF-8 Plain Text
Duration : 3 h 50 min
Bit rate : 30 b/s
Count of elements : 1488
Stream size : 51.4 KiB (0%)
Title : completo [SRT]
Language : Spanish
Default : Yes
Forced : No

Text #2
ID : 5
Format : UTF-8
Codec ID : S_TEXT/UTF8
Codec ID/Info : UTF-8 Plain Text
Duration : 3 h 50 min
Bit rate : 30 b/s
Count of elements : 1488
Stream size : 51.4 KiB (0%)
Title : Completo [SRT]
Language : Spanish
Default : No
Forced : No

Text #3
ID : 6
Format : UTF-8
Codec ID : S_TEXT/UTF8
Codec ID/Info : UTF-8 Plain Text
Duration : 4 h 0 min
Bit rate : 41 b/s
Count of elements : 3861
Stream size : 72.7 KiB (0%)
Language : English
Default : No
Forced : No

Format : Matroska
Format version : Version 4
File size : 7.70 GiB
Duration : 4 h 2 min
Overall bit rate mode : Variable
Overall bit rate : 4 550 kb/s
Encoded date : UTC 2021-03-18 09:24:38
Writing application : mkvmerge v53.0.0 ('Fool's Gold') 64-bit
Writing library : libebml v1.4.1 + libmatroska v1.6.2
Team : MiCinefilosHD - Cinéfilos Ripeos
Uploader : IgnacioHD
Web : www.micinehd.com

Video
ID : 1
Format : AVC
Format/Info : Advanced Video Codec
Format profile : Main@L3.1
Format settings : CABAC / 4 Ref Frames
Format settings, CABAC : Yes
Format settings, Reference : 4 frames
Codec ID : V_MPEG4/ISO/AVC
Duration : 4 h 2 min
Bit rate mode : Variable
Bit rate : 3 395 kb/s
Maximum bit rate : 5 100 kb/s
Width : 1 280 pixels
Height : 720 pixels
Display aspect ratio : 16:9
Frame rate mode : Constant
Frame rate : 23.976 (24000/1001) FPS
Color space : YUV
Chroma subsampling : 4:2:0
Bit depth : 8 bits
Scan type : Progressive
Bits/(Pixel*Frame) : 0.154
Stream size : 5.74 GiB (75%)
Default : Yes
Forced : No
Color range : Limited
Color primaries : BT.709
Transfer characteristics : BT.709
Matrix coefficients : BT.709

Audio #1
ID : 2
Format : AC-3
Format/Info : Audio Coding 3
Commercial name : Dolby Digital
Codec ID : A_AC3
Duration : 4 h 2 min
Bit rate mode : Constant
Bit rate : 384 kb/s
Channel(s) : 6 channels
Channel layout : L R C LFE Ls Rs
Sampling rate : 48.0 kHz
Frame rate : 31.250 FPS (1536 SPF)
Compression mode : Lossy
Stream size : 665 MiB (8%)
Title : Latino [AC3 5.1]
Language : Spanish
Service kind : Complete Main
Default : Yes
Forced : No

Audio #2
ID : 3
Format : E-AC-3 JOC
Format/Info : Enhanced AC-3 with Joint Object Coding
Commercial name : Dolby Digital Plus with Dolby Atmos
Codec ID : A_EAC3
Duration : 4 h 2 min
Bit rate mode : Constant
Bit rate : 768 kb/s
Channel(s) : 6 channels
Channel layout : L R C LFE Ls Rs
Sampling rate : 48.0 kHz
Frame rate : 31.250 FPS (1536 SPF)
Compression mode : Lossy
Stream size : 1.30 GiB (17%)
Title : English [EAC3 ,5.1]
Language : English
Service kind : Complete Main
Default : No
Forced : No
Complexity index : 16
Number of dynamic objects : 15
Bed channel count : 1 channel
Bed channel configuration : LFE

Text #1
ID : 4
Format : UTF-8
Codec ID : S_TEXT/UTF8
Codec ID/Info : UTF-8 Plain Text
Duration : 3 h 50 min
Bit rate : 30 b/s
Count of elements : 1488
Stream size : 51.4 KiB (0%)
Title : completo [SRT]
Language : Spanish
Default : Yes
Forced : No

Text #2
ID : 5
Format : UTF-8
Codec ID : S_TEXT/UTF8
Codec ID/Info : UTF-8 Plain Text
Duration : 3 h 50 min
Bit rate : 30 b/s
Count of elements : 1488
Stream size : 51.4 KiB (0%)
Title : Completo [SRT]
Language : Spanish
Default : No
Forced : No

Text #3
ID : 6
Format : UTF-8
Codec ID : S_TEXT/UTF8
Codec ID/Info : UTF-8 Plain Text
Duration : 4 h 0 min
Bit rate : 41 b/s
Count of elements : 3861
Stream size : 72.7 KiB (0%)
Language : English
Default : No
Forced : No

Formato : Matroska
Formato de la versión : Version 4
Tamaño de archivo : 32,2 GiB
Duración : 4 h 2 min
Tasa de bits general : 19,0 Mb/s
Película : Zack Snyder's Justice League (2021) - by CharlX [paypal.me/charlx0205]
Fecha de codificación : UTC 2021-03-18 11:44:50
Aplicación de codifición : mkvmerge v46.0.0 ('No Deeper Escape') 64-bit
Librería de codificación : libebml v1.3.10 + libmatroska v1.5.2
Aporte exclusivo para : MiCineHD.com
Encoder | Uploader : CharlX

Vídeo
ID : 1
Formato : HEVC
Formato/Info : High Efficiency Video Coding
Formato del perfil : Main 10@L5@Main
HDR format : SMPTE ST 2086, HDR10 compatible
ID códec : V_MPEGH/ISO/HEVC
Duración : 4 h 2 min
Tasa de bits : 17,9 Mb/s
Ancho : 3 840 píxeles
Alto : 2 160 píxeles
Relación de aspecto : 16:9
Modo velocidad fotogramas : Constante
Velocidad de fotogramas : 23,976 (24000/1001) FPS
Espacio de color : YUV
Submuestreo croma : 4:2:0
Profundidad bits : 10 bits
Bits/(píxel*fotograma) : 0.090
Tamaño de pista : 30,2 GiB (94%)
Título : www.MiCineHD.com by CharlX
Librería de codificación : x265 3.4hy:[Linux][GCC 7.5.0][64 bit] 10bit
Opciones de codificación : cpuid=1111039 / frame-threads=1 / wpp / no-pmode / no-pme / no-psnr / no-ssim / log-level=2 / input-csp=1 / input-res=3840x2160 / interlace=0 / total-frames=0 / level-idc=0 / high-tier=1 / uhd-bd=0 / ref=4 / no-allow-non-conformance / repeat-headers / annexb / no-aud / no-hrd / info / hash=0 / no-temporal-layers / no-open-gop / min-keyint=96 / keyint=96 / gop-lookahead=0 / bframes=3 / b-adapt=2 / b-pyramid / bframe-bias=0 / rc-lookahead=25 / lookahead-slices=4 / scenecut=40 / hist-scenecut=0 / radl=0 / no-splice / no-intra-refresh / ctu=64 / min-cu-size=8 / rect / no-amp / max-tu-size=32 / tu-inter-depth=1 / tu-intra-depth=1 / limit-tu=0 / rdoq-level=2 / dynamic-rd=0.00 / no-ssim-rd / signhide / no-tskip / nr-intra=0 / nr-inter=0 / no-constrained-intra / strong-intra-smoothing / max-merge=3 / limit-refs=3 / limit-modes / me=3 / subme=3 / merange=57 / temporal-mvp / no-frame-dup / no-hme / weightp / no-weightb / no-analyze-src-pics / deblock=0:0 / sao / no-sao-non-deblock / rd=4 / selective-sao=4 / no-early-skip / rskip / no-fast-intra / no-tskip-fast / no-cu-lossless / no-b-intra / no-splitrd-skip / rdpenalty=0 / psy-rd=2.00 / psy-rdoq=1.00 / no-rd-refine / no-lossless / cbqpoffs=0 / crqpoffs=0 / rc=abr / bitrate=18000 / qcomp=0.60 / qpstep=4 / stats-write=0 / stats-read=2 / cplxblur=20.0 / qblur=0.5 / vbv-maxrate=24500 / vbv-bufsize=24500 / vbv-init=0.6 / vbv-end=0.6 / vbv-end-fr-adj=0.0 / ipratio=1.40 / pbratio=1.30 / aq-mode=2 / aq-strength=1.00 / cutree / zone-count=0 / no-strict-cbr / qg-size=32 / no-rc-grain / qpmax=69 / qpmin=0 / no-const-vbv / sar=0 / overscan=0 / videoformat=5 / range=0 / colorprim=9 / transfer=16 / colormatrix=9 / chromaloc=0 / display-window=0 / master-display=G(13250,34500)B(7500,3000)R(34000,16000)WP(15635,16450)L(10000000,1) / cll=597,122 / min-luma=0 / max-luma=1023 / log2-max-poc-lsb=8 / vui-timing-info / vui-hrd-info / no-concatenation / slices=1 / no-opt-qp-pps / no-opt-ref-list-length-pps / no-multi-pass-opt-rps / scenecut-bias=0.05 / hist-threshold=0.01 / no-opt-cu-delta-qp / no-aq-motion / hdr10 / no-hdr10-opt / no-dhdr10-opt / no-idr-recovery-sei / analysis-reuse-level=0 / analysis-save-reuse-level=0 / analysis-load-reuse-level=0 / scale-factor=0 / refine-intra=0 / refine-inter=0 / refine-mv=1 / refine-ctu-distortion=0 / no-limit-sao / ctu-info=0 / no-lowpass-dct / refine-analysis-type=0 / copy-pic=1 / max-ausize-factor=1.0 / no-dynamic-refine / no-single-sei / no-hevc-aq / no-svt / no-field / qp-adaptation-range=1.00 / no-scenecut-aware-qpconformance-window-offsets / right=0 / bottom=0 / decoder-max-rate=0
Idioma : Inglés
Default : Sí
Forced : No
Rango de color : Limited
Colores primarios : BT.2020
Características transferencia : PQ
Coeficientes matriz : BT.2020 non-constant
Principios color monitor masterización : Display P3
Luminancia monitor masterización : min: 0.0001 cd/m2, max: 1000 cd/m2
Nivel ligero contenido máximo : 597 cd/m2
Nivel ligero fotograma medio máximo : 122 cd/m2

Audio #1
ID : 2
Formato : AC-3
Formato/Info : Audio Coding 3
Nombre comercial : Dolby Digital
ID códec : A_AC3
Duración : 4 h 2 min
Tipo de tasa de bits : Constante
Tasa de bits : 384 kb/s
Canal(es) : 6 canales
Channel layout : L R C LFE Ls Rs
Velocidad de muestreo : 48,0 kHz
Velocidad de fotogramas : 31,250 FPS (1536 SPF)
Modo de compresión : Con pérdida
Tamaño de pista : 665 MiB (2%)
Título : Español Latino [AC3 5.1]
Idioma : Español
Service kind : Complete Main
Default : Sí
Forced : No

Audio #2
ID : 3
Formato : E-AC-3 JOC
Formato/Info : Enhanced AC-3 with Joint Object Coding
Nombre comercial : Dolby Digital Plus with Dolby Atmos
ID códec : A_EAC3
Duración : 4 h 2 min
Tipo de tasa de bits : Constante
Tasa de bits : 768 kb/s
Canal(es) : 6 canales
Channel layout : L R C LFE Ls Rs
Velocidad de muestreo : 48,0 kHz
Velocidad de fotogramas : 31,250 FPS (1536 SPF)
Modo de compresión : Con pérdida
Tamaño de pista : 1,30 GiB (4%)
Título : English [E-AC3 5.1 Atmos]
Idioma : Inglés
Service kind : Complete Main
Default : No
Forced : No
Complexity index : 16
Number of dynamic objects : 15
Bed channel count : 1 canal
Bed channel configuration : LFE

Texto #1
ID : 4
Formato : UTF-8
ID códec : S_TEXT/UTF8
ID códec/Info : UTF-8 Plain Text
Duración : 3 h 50 min
Tasa de bits : 30 b/s
Count of elements : 1488
Tamaño de pista : 51,4 KiB (0%)
Título : completo [SRT]
Idioma : Español
Default : Sí
Forced : No

Texto #2
ID : 5
Formato : UTF-8
ID códec : S_TEXT/UTF8
ID códec/Info : UTF-8 Plain Text
Duración : 3 h 53 min
Tasa de bits : 40 b/s
Count of elements : 4083
Tamaño de pista : 68,4 KiB (0%)
Título : Español Latino [SRT]
Idioma : Español
Default : No
Forced : No

Texto #3
ID : 6
Formato : UTF-8
ID códec : S_TEXT/UTF8
ID códec/Info : UTF-8 Plain Text
Duración : 4 h 0 min
Tasa de bits : 41 b/s
Count of elements : 3861
Tamaño de pista : 72,7 KiB (0%)
Título : English SDH [SRT]
Idioma : Inglés
Default : No
Forced : No
Format : Matroska
Format version : Version 4
File size : 5.21 GiB
Duration : 4 h 2 min
Overall bit rate mode : Variable
Overall bit rate : 3 083 kb/s
Encoded date : UTC 2021-03-18 10:09:45
Writing application : mkvmerge v53.0.0 ('Fool's Gold') 64-bit
Writing library : libebml v1.4.1 + libmatroska v1.6.2
Team : MiCinefilosHD - Cinéfilos Ripeos
Uploader : IgnacioHD
Web : www.micinehd.com

Video
ID : 1
Format : AVC
Format/Info : Advanced Video Codec
Format profile : Main@L4
Format settings : CABAC / 1 Ref Frames
Format settings, CABAC : Yes
Format settings, Reference : 1 frame
Codec ID : V_MPEG4/ISO/AVC
Duration : 4 h 2 min
Bit rate mode : Variable
Bit rate : 2 446 kb/s
Maximum bit rate : 7 500 kb/s
Width : 1 920 pixels
Height : 1 080 pixels
Display aspect ratio : 16:9
Frame rate mode : Constant
Frame rate : 23.976 (24000/1001) FPS
Color space : YUV
Chroma subsampling : 4:2:0
Bit depth : 8 bits
Scan type : Progressive
Bits/(Pixel*Frame) : 0.049
Stream size : 4.14 GiB (79%)
Default : Yes
Forced : No

Audio #1
ID : 2
Format : AC-3
Format/Info : Audio Coding 3
Commercial name : Dolby Digital
Codec ID : A_AC3
Duration : 4 h 2 min
Bit rate mode : Constant
Bit rate : 384 kb/s
Channel(s) : 6 channels
Channel layout : L R C LFE Ls Rs
Sampling rate : 48.0 kHz
Frame rate : 31.250 FPS (1536 SPF)
Compression mode : Lossy
Delay relative to video : -21 ms
Stream size : 665 MiB (12%)
Title : Latino [AC3 5.1]
Language : Spanish
Service kind : Complete Main
Default : Yes
Forced : No

Audio #2
ID : 3
Format : AAC LC
Format/Info : Advanced Audio Codec Low Complexity
Codec ID : A_AAC-2
Duration : 4 h 2 min
Bit rate : 250 kb/s
Channel(s) : 6 channels
Channel layout : C L R Ls Rs LFE
Sampling rate : 48.0 kHz
Frame rate : 46.875 FPS (1024 SPF)
Compression mode : Lossy
Delay relative to video : -21 ms
Stream size : 433 MiB (8%)
Title : Ingles [AAC 5.1]
Language : English
Default : No
Forced : No

Text #1
ID : 4
Format : UTF-8
Codec ID : S_TEXT/UTF8
Codec ID/Info : UTF-8 Plain Text
Duration : 3 h 50 min
Bit rate : 30 b/s
Count of elements : 1488
Stream size : 51.4 KiB (0%)
Title : completo [SRT]
Language : Spanish
Default : Yes
Forced : No

Text #2
ID : 5
Format : UTF-8
Codec ID : S_TEXT/UTF8
Codec ID/Info : UTF-8 Plain Text
Duration : 3 h 50 min
Bit rate : 30 b/s
Count of elements : 1488
Stream size : 51.4 KiB (0%)
Title : Completo [SRT]
Language : Spanish
Default : No
Forced : No

Text #3
ID : 6
Format : UTF-8
Codec ID : S_TEXT/UTF8
Codec ID/Info : UTF-8 Plain Text
Duration : 4 h 0 min
Bit rate : 41 b/s
Count of elements : 3861
Stream size : 72.7 KiB (0%)
Language : English
Default : No
Forced : No

Format : Matroska
Format version : Version 4
File size : 2.94 GiB
Duration : 4 h 2 min
Overall bit rate mode : Variable
Overall bit rate : 1 737 kb/s
Encoded date : UTC 2021-03-18 14:09:31
Writing application : mkvmerge v53.0.0 ('Fool's Gold') 64-bit
Writing library : libebml v1.4.1 + libmatroska v1.6.2
Team : MiCinefilosHD - Cinéfilos Ripeos
Uploader : IgnacioHD
Web : www.micinehd.com

Video
ID : 1
Format : AVC
Format/Info : Advanced Video Codec
Format profile : High@L4.1
Format settings : CABAC / 5 Ref Frames
Format settings, CABAC : Yes
Format settings, Reference : 5 frames
Codec ID : V_MPEG4/ISO/AVC
Duration : 4 h 2 min
Bit rate mode : Variable
Bit rate : 1 100 kb/s
Maximum bit rate : 10 000 kb/s
Width : 1 280 pixels
Height : 720 pixels
Display aspect ratio : 16:9
Frame rate mode : Constant
Frame rate : 23.976 (24000/1001) FPS
Color space : YUV
Chroma subsampling : 4:2:0
Bit depth : 8 bits
Scan type : Progressive
Bits/(Pixel*Frame) : 0.050
Stream size : 1.86 GiB (63%)
Writing library : x264 core 157 r2935 545de2f
Encoding settings : cabac=1 / ref=5 / deblock=1:0:0 / analyse=0x3:0x113 / me=hex / subme=8 / psy=1 / psy_rd=1.00:0.00 / mixed_ref=1 / me_range=16 / chroma_me=1 / trellis=2 / 8x8dct=1 / cqm=0 / deadzone=21,11 / fast_pskip=1 / chroma_qp_offset=-2 / threads=22 / lookahead_threads=3 / sliced_threads=0 / nr=0 / decimate=1 / interlaced=0 / bluray_compat=0 / constrained_intra=0 / bframes=3 / b_pyramid=2 / b_adapt=1 / b_bias=0 / direct=3 / weightb=1 / open_gop=0 / weightp=2 / keyint=240 / keyint_min=24 / scenecut=40 / intra_refresh=0 / rc_lookahead=50 / rc=abr / mbtree=1 / bitrate=1100 / ratetol=1.0 / qcomp=0.60 / qpmin=0 / qpmax=69 / qpstep=4 / vbv_maxrate=10000 / vbv_bufsize=12500 / nal_hrd=vbr / filler=0 / ip_ratio=1.40 / aq=1:1.00
Default : Yes
Forced : No
Color range : Limited
Color primaries : BT.709
Transfer characteristics : BT.709
Matrix coefficients : BT.709

Audio #1
ID : 2
Format : AC-3
Format/Info : Audio Coding 3
Commercial name : Dolby Digital
Codec ID : A_AC3
Duration : 4 h 2 min
Bit rate mode : Constant
Bit rate : 384 kb/s
Channel(s) : 6 channels
Channel layout : L R C LFE Ls Rs
Sampling rate : 48.0 kHz
Frame rate : 31.250 FPS (1536 SPF)
Compression mode : Lossy
Stream size : 665 MiB (22%)
Title : Latino [AC3 5.1]
Language : Spanish
Service kind : Complete Main
Default : Yes
Forced : No

Audio #2
ID : 3
Format : AAC LC
Format/Info : Advanced Audio Codec Low Complexity
Codec ID : A_AAC-2
Duration : 4 h 2 min
Bit rate : 250 kb/s
Channel(s) : 6 channels
Channel layout : C L R Ls Rs LFE
Sampling rate : 48.0 kHz
Frame rate : 46.875 FPS (1024 SPF)
Compression mode : Lossy
Stream size : 433 MiB (14%)
Title : Ingles [AAC 5.1]
Language : English
Default : No
Forced : No

Text #1
ID : 4
Format : UTF-8
Codec ID : S_TEXT/UTF8
Codec ID/Info : UTF-8 Plain Text
Duration : 3 h 31 min
Bit rate : 0 b/s
Count of elements : 31
Stream size : 897 Bytes (0%)
Title : Latino Forzados
Language : Spanish
Default : Yes
Forced : No

Text #2
ID : 5
Format : UTF-8
Codec ID : S_TEXT/UTF8
Codec ID/Info : UTF-8 Plain Text
Duration : 3 h 50 min
Bit rate : 30 b/s
Count of elements : 1488
Stream size : 51.4 KiB (0%)
Title : completo [SRT]
Language : Spanish
Default : No
Forced : No

Text #3
ID : 6
Format : UTF-8
Codec ID : S_TEXT/UTF8
Codec ID/Info : UTF-8 Plain Text
Duration : 4 h 0 min
Bit rate : 41 b/s
Count of elements : 3861
Stream size : 72.7 KiB (0%)
Language : English
Default : No
Forced : No


Reportar Error Visitas: 345