Links Vip MCHD

Contenido Exclusivo

Todo aporte con enlaces de GDrive que pida permiso para descargar, se perdió, debido a que Google baneó múltiples cuentas, por lo tanto esos archivos están inaccesibles para descargar

Todos los enlaces rar son intercambiables

Problemas de contraseña o archivo dañado? repara siguiendo esta guía

Batman: La película (1966)

Format : Matroska
Format version : Version 4
File size : 22.3 GiB
Duration : 1 h 44 min
Overall bit rate mode : Variable
Overall bit rate : 30.4 Mb/s
Encoded date : UTC 2020-12-30 03:02:26
Writing application : mkvmerge v51.0.0 ('I Wish') 64-bit
Writing library : libebml v1.4.0 + libmatroska v1.6.2
Team : MiCinefilosHD - Cinéfilos Ripeos
Uploader : IgnacioHD
Web : www.micinehd.com

Video
ID : 1
Format : AVC
Format/Info : Advanced Video Codec
Format profile : High@L4.1
Format settings : CABAC / 3 Ref Frames
Format settings, CABAC : Yes
Format settings, Reference : 3 frames
Format settings, GOP : M=3, N=24
Codec ID : V_MPEG4/ISO/AVC
Duration : 1 h 44 min
Bit rate : 27.5 Mb/s
Width : 1 920 pixels
Height : 1 080 pixels
Display aspect ratio : 16:9
Frame rate mode : Constant
Frame rate : 23.976 (24000/1001) FPS
Color space : YUV
Chroma subsampling : 4:2:0
Bit depth : 8 bits
Scan type : Progressive
Bits/(Pixel*Frame) : 0.554
Stream size : 20.2 GiB (91%)
Title : MPEG-4 AVC Video / 27534 kbps / 1080p / 23.976 fps / 16:9 / High Profile 4.1
Language : English
Default : Yes
Forced : No

Audio #1
ID : 2
Format : AC-3
Format/Info : Audio Coding 3
Commercial name : Dolby Digital
Codec ID : A_AC3
Duration : 1 h 44 min
Bit rate mode : Constant
Bit rate : 192 kb/s
Channel(s) : 2 channels
Channel layout : L R
Sampling rate : 48.0 kHz
Frame rate : 31.250 FPS (1536 SPF)
Compression mode : Lossy
Stream size : 144 MiB (1%)
Title : Latino [AC3 2.0]
Language : Spanish
Service kind : Complete Main
Default : Yes
Forced : No

Audio #2
ID : 3
Format : DTS XLL
Format/Info : Digital Theater Systems
Commercial name : DTS-HD Master Audio
Codec ID : A_DTS
Duration : 1 h 44 min
Bit rate mode : Variable
Bit rate : 2 415 kb/s
Channel(s) : 6 channels
Channel layout : C L R Ls Rs LFE
Sampling rate : 48.0 kHz
Frame rate : 93.750 FPS (512 SPF)
Bit depth : 24 bits
Compression mode : Lossless
Stream size : 1.77 GiB (8%)
Title : Ingles [DTS HD MA 5.1]
Language : English
Default : No
Forced : No

Audio #3
ID : 4
Format : AC-3
Format/Info : Audio Coding 3
Commercial name : Dolby Digital
Codec ID : A_AC3
Duration : 1 h 44 min
Bit rate mode : Constant
Bit rate : 224 kb/s
Channel(s) : 2 channels
Channel layout : L R
Sampling rate : 48.0 kHz
Frame rate : 31.250 FPS (1536 SPF)
Compression mode : Lossy
Stream size : 168 MiB (1%)
Title : Ingles [AC3 2.0]
Language : English
Service kind : Complete Main
Default : No
Forced : No

Text #1
ID : 5
Format : UTF-8
Codec ID : S_TEXT/UTF8
Codec ID/Info : UTF-8 Plain Text
Duration : 1 h 44 min
Bit rate : 53 b/s
Count of elements : 1133
Stream size : 40.6 KiB (0%)
Title : Español [SRT]
Language : Spanish
Default : Yes
Forced : No

Text #2
ID : 6
Format : PGS
Muxing mode : zlib
Codec ID : S_HDMV/PGS
Codec ID/Info : Picture based subtitle format used on BDs/HD-DVDs
Duration : 1 h 44 min
Bit rate : 48.6 kb/s
Count of elements : 2265
Stream size : 36.2 MiB (0%)
Language : Spanish
Default : No
Forced : No

Text #3
ID : 7
Format : PGS
Muxing mode : zlib
Codec ID : S_HDMV/PGS
Codec ID/Info : Picture based subtitle format used on BDs/HD-DVDs
Duration : 1 h 41 min
Bit rate : 62.2 kb/s
Count of elements : 2604
Stream size : 45.0 MiB (0%)
Language : English
Default : No
Forced : No

Menu
00:00:00.000 : en:Dedication / Main Titles
00:02:40.702 : en:To the Rescue
00:07:08.178 : en:The Suicidal Shark
00:09:27.609 : en:The Press Conference
00:11:35.612 : en:The Terrible Truth
00:13:57.170 : en:A United Underworld
00:18:41.829 : en:The Illegal Mirage
00:22:41.902 : en:Torpedo Targets
00:28:20.616 : en:The Pentagon's Mistake
00:29:46.952 : en:Riddle Me This
00:32:12.055 : en:The Riddler's Plan
00:34:42.539 : en:Miss Kitka
00:38:46.324 : en:A Date with Kitka
00:42:14.866 : en:Bat Bait
00:46:02.760 : en:Carried Away
00:50:23.187 : en:Alone Together
00:52:58.175 : en:Bruce's Escape
00:55:39.336 : en:The Penguin's Plan
01:00:27.374 : en:Batman & The Bomb
01:04:06.050 : en:Commodore Schmidlapp?
01:06:19.183 : en:Just Add (Heavy) Water
01:10:11.624 : en:Follow That Penguin
01:13:00.292 : en:Misguided Missile
01:14:50.986 : en:Marathon Men
01:18:50.851 : en:Dehydrated Diplomats
01:22:18.684 : en:High Sea Pursuit
01:25:44.222 : en:Bat-Charges
01:30:50.028 : en:Submarine Showdown
01:34:09.769 : en:Holy Heartbreak!
01:35:45.448 : en:A Diplomatic Dust Storm
01:39:54.447 : en:A Mixing of Minds
01:44:21.046 : en:End Titles

Format : Matroska
Format version : Version 4
File size : 4.28 GiB
Duration : 1 h 44 min
Overall bit rate mode : Variable
Overall bit rate : 5 841 kb/s
Encoded date : UTC 2020-12-30 16:19:27
Writing application : mkvmerge v51.0.0 ('I Wish') 64-bit
Writing library : libebml v1.4.0 + libmatroska v1.6.2 / Lavf58.29.100
Team : MiCinefilosHD - Cinéfilos Ripeos
Uploader : IgnacioHD
Web : www.micinehd.com

Video
ID : 1
Format : AVC
Format/Info : Advanced Video Codec
Format profile : High@L4.1
Format settings : CABAC / 4 Ref Frames
Format settings, CABAC : Yes
Format settings, Reference : 4 frames
Codec ID : V_MPEG4/ISO/AVC
Duration : 1 h 44 min
Bit rate mode : Variable
Bit rate : 5 000 kb/s
Maximum bit rate : 20.0 Mb/s
Width : 1 920 pixels
Height : 1 080 pixels
Display aspect ratio : 16:9
Frame rate mode : Constant
Frame rate : 23.976 (24000/1001) FPS
Color space : YUV
Chroma subsampling : 4:2:0
Bit depth : 8 bits
Scan type : Progressive
Bits/(Pixel*Frame) : 0.101
Stream size : 3.67 GiB (86%)
Writing library : x264 core 157 r2935 545de2f
Encoding settings : cabac=1 / ref=4 / deblock=1:0:0 / analyse=0x3:0x133 / me=umh / subme=10 / psy=1 / psy_rd=1.00:0.00 / mixed_ref=1 / me_range=24 / chroma_me=1 / trellis=2 / 8x8dct=1 / cqm=0 / deadzone=21,11 / fast_pskip=1 / chroma_qp_offset=-2 / threads=24 / lookahead_threads=4 / sliced_threads=0 / nr=0 / decimate=1 / interlaced=0 / bluray_compat=0 / constrained_intra=0 / bframes=8 / b_pyramid=2 / b_adapt=2 / b_bias=0 / direct=3 / weightb=1 / open_gop=0 / weightp=2 / keyint=240 / keyint_min=24 / scenecut=40 / intra_refresh=0 / rc_lookahead=60 / rc=abr / mbtree=1 / bitrate=5000 / ratetol=1.0 / qcomp=0.60 / qpmin=0 / qpmax=69 / qpstep=4 / vbv_maxrate=20000 / vbv_bufsize=25000 / nal_hrd=vbr / filler=0 / ip_ratio=1.40 / aq=1:1.00
Default : Yes
Forced : No
Color range : Limited
Color primaries : BT.709
Transfer characteristics : BT.709
Matrix coefficients : BT.709

Audio #1
ID : 2
Format : AC-3
Format/Info : Audio Coding 3
Commercial name : Dolby Digital
Codec ID : A_AC3
Duration : 1 h 44 min
Bit rate mode : Constant
Bit rate : 192 kb/s
Channel(s) : 2 channels
Channel layout : L R
Sampling rate : 48.0 kHz
Frame rate : 31.250 FPS (1536 SPF)
Compression mode : Lossy
Delay relative to video : 5 ms
Stream size : 144 MiB (3%)
Title : Latino [AC3 2.0]
Language : Spanish
Service kind : Complete Main
Default : Yes
Forced : No

Audio #2
ID : 3
Format : AC-3
Format/Info : Audio Coding 3
Commercial name : Dolby Digital
Codec ID : A_AC3
Duration : 1 h 44 min
Bit rate mode : Constant
Bit rate : 640 kb/s
Channel(s) : 6 channels
Channel layout : L R C LFE Ls Rs
Sampling rate : 48.0 kHz
Frame rate : 31.250 FPS (1536 SPF)
Compression mode : Lossy
Stream size : 480 MiB (11%)
Title : Ingles [DTS HD MA 5.1]
Language : English
Service kind : Complete Main
Default : No
Forced : No

Text #1
ID : 4
Format : UTF-8
Codec ID : S_TEXT/UTF8
Codec ID/Info : UTF-8 Plain Text
Duration : 1 h 44 min
Bit rate : 53 b/s
Count of elements : 1133
Stream size : 40.6 KiB (0%)
Title : Espa;ol
Language : Spanish
Default : Yes
Forced : No

Text #2
ID : 5
Format : ASS
Codec ID : S_TEXT/ASS
Codec ID/Info : Advanced Sub Station Alpha
Duration : 1 h 44 min
Bit rate : 83 b/s
Count of elements : 1133
Compression mode : Lossless
Stream size : 63.9 KiB (0%)
Title : Español [SSA]
Language : Spanish
Default : No
Forced : No

Menu
00:00:00.000 : :Dedication / Main Titles
00:02:40.702 : :To the Rescue
00:07:08.178 : :The Suicidal Shark
00:09:27.609 : :The Press Conference
00:11:35.612 : :The Terrible Truth
00:13:57.170 : :A United Underworld
00:18:41.829 : :The Illegal Mirage
00:22:41.902 : :Torpedo Targets
00:28:20.616 : :The Pentagon's Mistake
00:29:46.952 : :Riddle Me This
00:32:12.055 : :The Riddler's Plan
00:34:42.539 : :Miss Kitka
00:38:46.324 : :A Date with Kitka
00:42:14.866 : :Bat Bait
00:46:02.760 : :Carried Away
00:50:23.187 : :Alone Together
00:52:58.175 : :Bruce's Escape
00:55:39.336 : :The Penguin's Plan
01:00:27.374 : :Batman & The Bomb
01:04:06.051 : :Commodore Schmidlapp?
01:06:19.184 : :Just Add (Heavy) Water
01:10:11.624 : :Follow That Penguin
01:13:00.293 : :Misguided Missile
01:14:50.987 : :Marathon Men
01:18:50.851 : :Dehydrated Diplomats
01:22:18.684 : :High Sea Pursuit
01:25:44.222 : :Bat-Charges
01:30:50.028 : :Submarine Showdown
01:34:09.769 : :Holy Heartbreak!
01:35:45.448 : :A Diplomatic Dust Storm
01:39:54.447 : :A Mixing of Minds
01:44:21.046 : :End Titles

Format : Matroska
Format version : Version 4
File size : 1.71 GiB
Duration : 1 h 44 min
Overall bit rate mode : Variable
Overall bit rate : 2 336 kb/s
Encoded date : UTC 2020-12-30 16:17:26
Writing application : mkvmerge v51.0.0 ('I Wish') 64-bit
Writing library : libebml v1.4.0 + libmatroska v1.6.2 / Lavf58.29.100
Team : MiCinefilosHD - Cinéfilos Ripeos
Uploader : IgnacioHD
Web : www.micinehd.com

Video
ID : 1
Format : AVC
Format/Info : Advanced Video Codec
Format profile : High@L4.1
Format settings : CABAC / 5 Ref Frames
Format settings, CABAC : Yes
Format settings, Reference : 5 frames
Codec ID : V_MPEG4/ISO/AVC
Duration : 1 h 44 min
Bit rate mode : Variable
Bit rate : 1 500 kb/s
Maximum bit rate : 10 000 kb/s
Width : 1 280 pixels
Height : 720 pixels
Display aspect ratio : 16:9
Frame rate mode : Constant
Frame rate : 23.976 (24000/1001) FPS
Color space : YUV
Chroma subsampling : 4:2:0
Bit depth : 8 bits
Scan type : Progressive
Bits/(Pixel*Frame) : 0.068
Stream size : 1.10 GiB (64%)
Writing library : x264 core 157 r2935 545de2f
Encoding settings : cabac=1 / ref=5 / deblock=1:0:0 / analyse=0x3:0x113 / me=hex / subme=8 / psy=1 / psy_rd=1.00:0.00 / mixed_ref=1 / me_range=16 / chroma_me=1 / trellis=2 / 8x8dct=1 / cqm=0 / deadzone=21,11 / fast_pskip=1 / chroma_qp_offset=-2 / threads=22 / lookahead_threads=3 / sliced_threads=0 / nr=0 / decimate=1 / interlaced=0 / bluray_compat=0 / constrained_intra=0 / bframes=3 / b_pyramid=2 / b_adapt=1 / b_bias=0 / direct=3 / weightb=1 / open_gop=0 / weightp=2 / keyint=240 / keyint_min=24 / scenecut=40 / intra_refresh=0 / rc_lookahead=50 / rc=abr / mbtree=1 / bitrate=1500 / ratetol=1.0 / qcomp=0.60 / qpmin=0 / qpmax=69 / qpstep=4 / vbv_maxrate=10000 / vbv_bufsize=12500 / nal_hrd=vbr / filler=0 / ip_ratio=1.40 / aq=1:1.00
Default : Yes
Forced : No
Color range : Limited
Color primaries : BT.709
Transfer characteristics : BT.709
Matrix coefficients : BT.709

Audio #1
ID : 2
Format : AC-3
Format/Info : Audio Coding 3
Commercial name : Dolby Digital
Codec ID : A_AC3
Duration : 1 h 44 min
Bit rate mode : Constant
Bit rate : 192 kb/s
Channel(s) : 2 channels
Channel layout : L R
Sampling rate : 48.0 kHz
Frame rate : 31.250 FPS (1536 SPF)
Compression mode : Lossy
Stream size : 144 MiB (8%)
Title : Latino [AC3 2.0]
Language : Spanish
Service kind : Complete Main
Default : Yes
Forced : No

Audio #2
ID : 3
Format : AC-3
Format/Info : Audio Coding 3
Commercial name : Dolby Digital
Codec ID : A_AC3
Duration : 1 h 44 min
Bit rate mode : Constant
Bit rate : 640 kb/s
Channel(s) : 6 channels
Channel layout : L R C LFE Ls Rs
Sampling rate : 48.0 kHz
Frame rate : 31.250 FPS (1536 SPF)
Compression mode : Lossy
Delay relative to video : -5 ms
Stream size : 480 MiB (27%)
Title : Ingles [DTS HD MA 5.1]
Language : English
Service kind : Complete Main
Default : No
Forced : No

Text #1
ID : 4
Format : UTF-8
Codec ID : S_TEXT/UTF8
Codec ID/Info : UTF-8 Plain Text
Duration : 1 h 44 min
Bit rate : 53 b/s
Count of elements : 1133
Stream size : 40.6 KiB (0%)
Title : Espa;ol
Language : Spanish
Default : Yes
Forced : No

Text #2
ID : 5
Format : ASS
Codec ID : S_TEXT/ASS
Codec ID/Info : Advanced Sub Station Alpha
Duration : 1 h 44 min
Bit rate : 83 b/s
Count of elements : 1133
Compression mode : Lossless
Stream size : 63.9 KiB (0%)
Title : Español [SSA]
Language : Spanish
Default : No
Forced : No

Menu
00:00:00.000 : :Dedication / Main Titles
00:02:40.702 : :To the Rescue
00:07:08.178 : :The Suicidal Shark
00:09:27.609 : :The Press Conference
00:11:35.612 : :The Terrible Truth
00:13:57.170 : :A United Underworld
00:18:41.829 : :The Illegal Mirage
00:22:41.902 : :Torpedo Targets
00:28:20.616 : :The Pentagon's Mistake
00:29:46.952 : :Riddle Me This
00:32:12.055 : :The Riddler's Plan
00:34:42.539 : :Miss Kitka
00:38:46.324 : :A Date with Kitka
00:42:14.866 : :Bat Bait
00:46:02.760 : :Carried Away
00:50:23.187 : :Alone Together
00:52:58.175 : :Bruce's Escape
00:55:39.336 : :The Penguin's Plan
01:00:27.374 : :Batman & The Bomb
01:04:06.051 : :Commodore Schmidlapp?
01:06:19.184 : :Just Add (Heavy) Water
01:10:11.624 : :Follow That Penguin
01:13:00.293 : :Misguided Missile
01:14:50.987 : :Marathon Men
01:18:50.851 : :Dehydrated Diplomats
01:22:18.684 : :High Sea Pursuit
01:25:44.222 : :Bat-Charges
01:30:50.028 : :Submarine Showdown
01:34:09.769 : :Holy Heartbreak!
01:35:45.448 : :A Diplomatic Dust Storm
01:39:54.447 : :A Mixing of Minds
01:44:21.046 : :End Titles


Reportar Error Visitas: 170