Links Vip MCHD

Contenido privado

Todo aporte con enlaces de GDrive que pida permiso para descargar, se perdió, debido a que Google baneó múltiples cuentas, por lo tanto esos archivos están inaccesibles para descargar

Todos los enlaces rar son intercambiables

Problemas de contraseña o archivo dañado? repara siguiendo esta guía

El Joven Manos de Tijera (1990)

Format : Matroska
Format version : Version 4
File size : 4.84 GiB
Duration : 1 h 45 min
Overall bit rate mode : Variable
Overall bit rate : 6 603 kb/s
Movie name : Edward Scissorhands (1990) [25th Anniversary Remastered] - www.MiCineHD.com
Encoded date : UTC 2020-10-28 01:34:33
Writing application : mkvmerge v51.0.0 ('I Wish') 64-bit
Writing library : libebml v1.4.0 + libmatroska v1.6.2
Cover : Yes
Attachments : cover.jpg
Aporte exclusivo para : MiCineHD.com
Encoder : CharlX

Video
ID : 1
Format : AVC
Format/Info : Advanced Video Codec
Format profile : High@L4.1
Format settings : CABAC / 4 Ref Frames
Format settings, CABAC : Yes
Format settings, Reference : 4 frames
Codec ID : V_MPEG4/ISO/AVC
Duration : 1 h 45 min
Bit rate mode : Variable
Bit rate : 5 000 kb/s
Maximum bit rate : 20.0 Mb/s
Width : 1 920 pixels
Height : 1 080 pixels
Display aspect ratio : 16:9
Frame rate mode : Constant
Frame rate : 23.976 (24000/1001) FPS
Color space : YUV
Chroma subsampling : 4:2:0
Bit depth : 8 bits
Scan type : Progressive
Bits/(Pixel*Frame) : 0.101
Stream size : 3.57 GiB (74%)
Title : www.MiCineHD.com
Writing library : x264 core 157 r2935 545de2f
Encoding settings : cabac=1 / ref=4 / deblock=1:0:0 / analyse=0x3:0x133 / me=umh / subme=10 / psy=1 / psy_rd=1.00:0.00 / mixed_ref=1 / me_range=24 / chroma_me=1 / trellis=2 / 8x8dct=1 / cqm=0 / deadzone=21,11 / fast_pskip=1 / chroma_qp_offset=-2 / threads=34 / lookahead_threads=5 / sliced_threads=0 / nr=0 / decimate=1 / interlaced=0 / bluray_compat=0 / constrained_intra=0 / bframes=8 / b_pyramid=2 / b_adapt=2 / b_bias=0 / direct=3 / weightb=1 / open_gop=0 / weightp=2 / keyint=240 / keyint_min=24 / scenecut=40 / intra_refresh=0 / rc_lookahead=60 / rc=abr / mbtree=1 / bitrate=5000 / ratetol=1.0 / qcomp=0.60 / qpmin=0 / qpmax=69 / qpstep=4 / vbv_maxrate=20000 / vbv_bufsize=25000 / nal_hrd=vbr / filler=0 / ip_ratio=1.40 / aq=1:1.00
Language : English
Default : Yes
Forced : No
Color range : Limited
Color primaries : BT.709
Transfer characteristics : BT.709
Matrix coefficients : BT.709

Audio #1
ID : 2
ID in the original source m : 4353 (0x1101)
Format : AC-3
Format/Info : Audio Coding 3
Commercial name : Dolby Digital
Codec ID : A_AC3
Duration : 1 h 45 min
Bit rate mode : Constant
Bit rate : 192 kb/s
Channel(s) : 2 channels
Channel layout : L R
Sampling rate : 48.0 kHz
Frame rate : 31.250 FPS (1536 SPF)
Compression mode : Lossy
Stream size : 144 MiB (3%)
Title : Español Latino [AC3 2.0]
Language : Spanish
Service kind : Complete Main
Default : Yes
Forced : No
Original source medium : Blu-ray

Audio #2
ID : 3
ID in the original source m : 4352 (0x1100)
Format : DTS
Format/Info : Digital Theater Systems
Codec ID : A_DTS
Duration : 1 h 45 min
Bit rate mode : Constant
Bit rate : 1 509 kb/s
Channel(s) : 4 channels
Channel layout : C L R Cb
Sampling rate : 48.0 kHz
Frame rate : 93.750 FPS (512 SPF)
Bit depth : 24 bits
Compression mode : Lossy
Stream size : 1.11 GiB (23%)
Title : English [DTS Core 4.0]
Language : English
Default : No
Forced : No
Original source medium : Blu-ray

Text #1
ID : 4
Format : UTF-8
Codec ID : S_TEXT/UTF8
Codec ID/Info : UTF-8 Plain Text
Duration : 1 h 38 min
Bit rate : 0 b/s
Count of elements : 5
Stream size : 95.0 Bytes (0%)
Title : Forzados [SRT]
Language : Spanish
Default : No
Forced : Yes

Text #2
ID : 5
Format : UTF-8
Codec ID : S_TEXT/UTF8
Codec ID/Info : UTF-8 Plain Text
Duration : 1 h 41 min
Bit rate : 43 b/s
Count of elements : 940
Stream size : 32.1 KiB (0%)
Title : Español Latino [SRT]
Language : Spanish
Default : No
Forced : No

Text #3
ID : 6
ID in the original source m : 4609 (0x1201)
Format : PGS
Muxing mode : zlib
Codec ID : S_HDMV/PGS
Codec ID/Info : Picture based subtitle format used on BDs/HD-DVDs
Duration : 1 h 38 min
Bit rate : 106 b/s
Count of elements : 10
Stream size : 77.3 KiB (0%)
Title : Forzados [PGS]
Language : Spanish
Default : Yes
Forced : Yes
Original source medium : Blu-ray

Text #4
ID : 7
ID in the original source m : 4609 (0x1201)
Format : PGS
Muxing mode : zlib
Codec ID : S_HDMV/PGS
Codec ID/Info : Picture based subtitle format used on BDs/HD-DVDs
Duration : 1 h 41 min
Bit rate : 26.7 kb/s
Count of elements : 1880
Stream size : 19.5 MiB (0%)
Title : Español Latino [PGS]
Language : Spanish
Default : No
Forced : No
Original source medium : Blu-ray

Text #5
ID : 8
ID in the original source m : 4608 (0x1200)
Format : PGS
Muxing mode : zlib
Codec ID : S_HDMV/PGS
Codec ID/Info : Picture based subtitle format used on BDs/HD-DVDs
Duration : 1 h 36 min
Bit rate : 53.1 kb/s
Count of elements : 2068
Stream size : 36.5 MiB (1%)
Title : English SDH [PGS]
Language : English
Default : No
Forced : No
Original source medium : Blu-ray

Menu
00:00:00.000 : de:Chapter 01
00:02:44.956 : de:Chapter 02
00:05:18.109 : de:Chapter 03
00:12:24.618 : de:Chapter 04
00:16:35.619 : de:Chapter 05
00:28:31.501 : de:Chapter 06
00:31:26.301 : de:Chapter 07
00:33:28.256 : de:Chapter 08
00:35:28.668 : de:Chapter 09
00:38:14.875 : de:Chapter 10
00:39:47.676 : de:Chapter 11
00:45:03.409 : de:Chapter 12
00:47:37.855 : de:Chapter 13
00:54:37.565 : de:Chapter 14
00:56:56.538 : de:Chapter 15
01:01:17.799 : de:Chapter 16
01:04:39.041 : de:Chapter 17
01:09:21.448 : de:Chapter 18
01:15:50.337 : de:Chapter 19
01:19:04.156 : de:Chapter 20
01:24:56.633 : de:Chapter 21
01:27:05.553 : de:Chapter 22
01:37:03.359 : de:Chapter 23
01:39:45.813 : de:Chapter 24
Format : Matroska
Format version : Version 2
File size : 25.4 GiB
Duration : 1 h 45 min
Overall bit rate mode : Variable
Overall bit rate : 34.7 Mb/s
Movie name : Edward mit den Scherenhänden
Encoded date : UTC 2020-10-26 06:58:09
Writing application : MakeMKV v1.15.2 win(x64-release)
Writing library : libmakemkv v1.15.2 (1.3.10/1.5.2) win(x64-release)
Cover : Yes
Attachments : cover.jpg

Video
ID : 1
ID in the original source m : 4113 (0x1011)
Format : AVC
Format/Info : Advanced Video Codec
Format profile : High@L4.1
Format settings : CABAC / 4 Ref Frames
Format settings, CABAC : Yes
Format settings, Reference : 4 frames
Format settings, GOP : M=3, N=12
Codec ID : V_MPEG4/ISO/AVC
Duration : 1 h 45 min
Bit rate mode : Variable
Bit rate : 29.9 Mb/s
Maximum bit rate : 31.0 Mb/s
Width : 1 920 pixels
Height : 1 080 pixels
Display aspect ratio : 16:9
Frame rate mode : Constant
Frame rate : 23.976 (24000/1001) FPS
Color space : YUV
Chroma subsampling : 4:2:0
Bit depth : 8 bits
Scan type : Progressive
Bits/(Pixel*Frame) : 0.601
Stream size : 21.9 GiB (86%)
Language : English
Default : No
Forced : No
Original source medium : Blu-ray

Audio #1
ID : 2
ID in the original source m : 4353 (0x1101)
Format : AC-3
Format/Info : Audio Coding 3
Commercial name : Dolby Digital
Codec ID : A_AC3
Duration : 1 h 45 min
Bit rate mode : Constant
Bit rate : 192 kb/s
Channel(s) : 2 channels
Channel layout : L R
Sampling rate : 48.0 kHz
Frame rate : 31.250 FPS (1536 SPF)
Compression mode : Lossy
Stream size : 144 MiB (1%)
Title : Stereo
Language : Spanish
Service kind : Complete Main
Default : Yes
Forced : No
Original source medium : Blu-ray

Audio #2
ID : 3
ID in the original source m : 4352 (0x1100)
Format : DTS XLL
Format/Info : Digital Theater Systems
Commercial name : DTS-HD Master Audio
Codec ID : A_DTS
Duration : 1 h 45 min
Bit rate mode : Variable
Bit rate : 3 013 kb/s
Channel(s) : 4 channels
Channel layout : C L R Cb
Sampling rate : 48.0 kHz
Frame rate : 93.750 FPS (512 SPF)
Bit depth : 24 bits
Compression mode : Lossless
Stream size : 2.21 GiB (9%)
Title : Surround 4.0
Language : English
Default : No
Forced : No
Original source medium : Blu-ray

Audio #3
ID : 4
ID in the original source m : 4352 (0x1100)
Format : DTS
Format/Info : Digital Theater Systems
Codec ID : A_DTS
Duration : 1 h 45 min
Bit rate mode : Constant
Bit rate : 1 509 kb/s
Channel(s) : 4 channels
Channel layout : C L R Cb
Sampling rate : 48.0 kHz
Frame rate : 93.750 FPS (512 SPF)
Bit depth : 24 bits
Compression mode : Lossy
Stream size : 1.11 GiB (4%)
Title : Surround 4.0
Language : English
Default : No
Forced : No
Original source medium : Blu-ray

Text #1
ID : 5
ID in the original source m : 4609 (0x1201)
Format : PGS
Codec ID : S_HDMV/PGS
Codec ID/Info : Picture based subtitle format used on BDs/HD-DVDs
Duration : 1 h 41 min
Bit rate : 26.7 kb/s
Count of elements : 1880
Stream size : 19.5 MiB (0%)
Language : Spanish
Default : No
Forced : No
Original source medium : Blu-ray

Text #2
ID : 6
ID in the original source m : 4609 (0x1201)
Format : PGS
Codec ID : S_HDMV/PGS
Codec ID/Info : Picture based subtitle format used on BDs/HD-DVDs
Duration : 1 h 38 min
Bit rate : 106 b/s
Count of elements : 10
Stream size : 77.3 KiB (0%)
Language : Spanish
Default : Yes
Forced : No
Original source medium : Blu-ray

Text #3
ID : 7
ID in the original source m : 4608 (0x1200)
Format : PGS
Codec ID : S_HDMV/PGS
Codec ID/Info : Picture based subtitle format used on BDs/HD-DVDs
Duration : 1 h 36 min
Bit rate : 53.1 kb/s
Count of elements : 2068
Stream size : 36.5 MiB (0%)
Language : English
Default : No
Forced : No
Original source medium : Blu-ray

Menu
00:00:00.000 : de:Chapter 01
00:02:44.956 : de:Chapter 02
00:05:18.109 : de:Chapter 03
00:12:24.618 : de:Chapter 04
00:16:35.619 : de:Chapter 05
00:28:31.501 : de:Chapter 06
00:31:26.301 : de:Chapter 07
00:33:28.256 : de:Chapter 08
00:35:28.668 : de:Chapter 09
00:38:14.875 : de:Chapter 10
00:39:47.676 : de:Chapter 11
00:45:03.409 : de:Chapter 12
00:47:37.855 : de:Chapter 13
00:54:37.565 : de:Chapter 14
00:56:56.538 : de:Chapter 15
01:01:17.799 : de:Chapter 16
01:04:39.041 : de:Chapter 17
01:09:21.448 : de:Chapter 18
01:15:50.337 : de:Chapter 19
01:19:04.156 : de:Chapter 20
01:24:56.633 : de:Chapter 21
01:27:05.553 : de:Chapter 22
01:37:03.359 : de:Chapter 23
01:39:45.813 : de:Chapter 24
Format : Matroska
Format version : Version 4
File size : 1.57 GiB
Duration : 1 h 45 min
Overall bit rate mode : Variable
Overall bit rate : 2 147 kb/s
Movie name : Edward Scissorhands (1990) [25th Anniversary Remastered] - www.MiCineHD.com
Encoded date : UTC 2020-10-28 01:40:16
Writing application : mkvmerge v51.0.0 ('I Wish') 64-bit
Writing library : libebml v1.4.0 + libmatroska v1.6.2
Cover : Yes
Attachments : cover.jpg
Aporte exclusivo para : MiCineHD.com
Encoder : CharlX

Video
ID : 1
Format : AVC
Format/Info : Advanced Video Codec
Format profile : High@L4.1
Format settings : CABAC / 5 Ref Frames
Format settings, CABAC : Yes
Format settings, Reference : 5 frames
Codec ID : V_MPEG4/ISO/AVC
Duration : 1 h 45 min
Bit rate mode : Variable
Bit rate : 1 500 kb/s
Maximum bit rate : 10 000 kb/s
Width : 1 280 pixels
Height : 720 pixels
Display aspect ratio : 16:9
Frame rate mode : Constant
Frame rate : 23.976 (24000/1001) FPS
Color space : YUV
Chroma subsampling : 4:2:0
Bit depth : 8 bits
Scan type : Progressive
Bits/(Pixel*Frame) : 0.068
Stream size : 1.08 GiB (69%)
Title : www.MiCineHD.com
Writing library : x264 core 157 r2935 545de2f
Encoding settings : cabac=1 / ref=5 / deblock=1:0:0 / analyse=0x3:0x113 / me=hex / subme=8 / psy=1 / psy_rd=1.00:0.00 / mixed_ref=1 / me_range=16 / chroma_me=1 / trellis=2 / 8x8dct=1 / cqm=0 / deadzone=21,11 / fast_pskip=1 / chroma_qp_offset=-2 / threads=22 / lookahead_threads=3 / sliced_threads=0 / nr=0 / decimate=1 / interlaced=0 / bluray_compat=0 / constrained_intra=0 / bframes=3 / b_pyramid=2 / b_adapt=1 / b_bias=0 / direct=3 / weightb=1 / open_gop=0 / weightp=2 / keyint=240 / keyint_min=24 / scenecut=40 / intra_refresh=0 / rc_lookahead=50 / rc=abr / mbtree=1 / bitrate=1500 / ratetol=1.0 / qcomp=0.60 / qpmin=0 / qpmax=69 / qpstep=4 / vbv_maxrate=10000 / vbv_bufsize=12500 / nal_hrd=vbr / filler=0 / ip_ratio=1.40 / aq=1:1.00
Language : English
Default : Yes
Forced : No
Color range : Limited
Color primaries : BT.709
Transfer characteristics : BT.709
Matrix coefficients : BT.709

Audio #1
ID : 2
ID in the original source m : 4353 (0x1101)
Format : AC-3
Format/Info : Audio Coding 3
Commercial name : Dolby Digital
Codec ID : A_AC3
Duration : 1 h 45 min
Bit rate mode : Constant
Bit rate : 192 kb/s
Channel(s) : 2 channels
Channel layout : L R
Sampling rate : 48.0 kHz
Frame rate : 31.250 FPS (1536 SPF)
Compression mode : Lossy
Stream size : 144 MiB (9%)
Title : Español Latino [AC3 2.0]
Language : Spanish
Service kind : Complete Main
Default : Yes
Forced : No
Original source medium : Blu-ray

Audio #2
ID : 3
Format : AC-3
Format/Info : Audio Coding 3
Commercial name : Dolby Digital
Codec ID : A_AC3
Duration : 1 h 45 min
Bit rate mode : Constant
Bit rate : 448 kb/s
Channel(s) : 4 channels
Channel layout : L R C Cb
Sampling rate : 48.0 kHz
Frame rate : 31.250 FPS (1536 SPF)
Compression mode : Lossy
Stream size : 336 MiB (21%)
Title : English [AC3 4.0]
Language : English
Service kind : Complete Main
Default : No
Forced : No

Text #1
ID : 4
Format : UTF-8
Codec ID : S_TEXT/UTF8
Codec ID/Info : UTF-8 Plain Text
Duration : 1 h 38 min
Bit rate : 0 b/s
Count of elements : 5
Stream size : 95.0 Bytes (0%)
Title : Forzados [SRT]
Language : Spanish
Default : No
Forced : Yes

Text #2
ID : 5
Format : UTF-8
Codec ID : S_TEXT/UTF8
Codec ID/Info : UTF-8 Plain Text
Duration : 1 h 41 min
Bit rate : 43 b/s
Count of elements : 940
Stream size : 32.1 KiB (0%)
Title : Español Latino [SRT]
Language : Spanish
Default : No
Forced : No

Text #3
ID : 6
ID in the original source m : 4609 (0x1201)
Format : PGS
Muxing mode : zlib
Codec ID : S_HDMV/PGS
Codec ID/Info : Picture based subtitle format used on BDs/HD-DVDs
Duration : 1 h 38 min
Bit rate : 106 b/s
Count of elements : 10
Stream size : 77.3 KiB (0%)
Title : Forzados [PGS]
Language : Spanish
Default : Yes
Forced : Yes
Original source medium : Blu-ray

Text #4
ID : 7
ID in the original source m : 4609 (0x1201)
Format : PGS
Muxing mode : zlib
Codec ID : S_HDMV/PGS
Codec ID/Info : Picture based subtitle format used on BDs/HD-DVDs
Duration : 1 h 41 min
Bit rate : 26.7 kb/s
Count of elements : 1880
Stream size : 19.5 MiB (1%)
Title : Español Latino [PGS]
Language : Spanish
Default : No
Forced : No
Original source medium : Blu-ray

Text #5
ID : 8
ID in the original source m : 4608 (0x1200)
Format : PGS
Muxing mode : zlib
Codec ID : S_HDMV/PGS
Codec ID/Info : Picture based subtitle format used on BDs/HD-DVDs
Duration : 1 h 36 min
Bit rate : 53.1 kb/s
Count of elements : 2068
Stream size : 36.5 MiB (2%)
Title : English SDH [PGS]
Language : English
Default : No
Forced : No
Original source medium : Blu-ray

Menu
00:00:00.000 : de:Chapter 01
00:02:44.956 : de:Chapter 02
00:05:18.109 : de:Chapter 03
00:12:24.618 : de:Chapter 04
00:16:35.619 : de:Chapter 05
00:28:31.501 : de:Chapter 06
00:31:26.301 : de:Chapter 07
00:33:28.256 : de:Chapter 08
00:35:28.668 : de:Chapter 09
00:38:14.875 : de:Chapter 10
00:39:47.676 : de:Chapter 11
00:45:03.409 : de:Chapter 12
00:47:37.855 : de:Chapter 13
00:54:37.565 : de:Chapter 14
00:56:56.538 : de:Chapter 15
01:01:17.799 : de:Chapter 16
01:04:39.041 : de:Chapter 17
01:09:21.448 : de:Chapter 18
01:15:50.337 : de:Chapter 19
01:19:04.156 : de:Chapter 20
01:24:56.633 : de:Chapter 21
01:27:05.553 : de:Chapter 22
01:37:03.359 : de:Chapter 23
01:39:45.813 : de:Chapter 24

Reportar Error Visitas: 149