Links Vip MCHD

Contenido Exclusivo

Todo aporte con enlaces de GDrive que pida permiso para descargar, se perdió, debido a que Google baneó múltiples cuentas, por lo tanto esos archivos están inaccesibles para descargar

Todos los enlaces rar son intercambiables

Problemas de contraseña o archivo dañado? repara siguiendo esta guía

The International (2009)

Format : Matroska
Format version : Version 4
File size : 25.0 GiB
Duration : 1 h 58 min
Overall bit rate mode : Variable
Overall bit rate : 30.3 Mb/s
Movie name : The International (2009) - www.micinehd.com
Encoded date : UTC 2020-10-06 17:09:56
Writing application : mkvmerge v51.0.0 ('I Wish') 64-bit
Writing library : libebml v1.4.0 + libmatroska v1.6.2
Cover : Yes
Attachments : cover.jpg
Team : MiCinefilosHD - Cinefilos Ripeos
Uploader : ChuyPaka
Web : www.micinehd.com

Video
ID : 1
ID in the original source m : 4113 (0x1011)
Format : AVC
Format/Info : Advanced Video Codec
Format profile : High@L4.1
Format settings : CABAC / 2 Ref Frames
Format settings, CABAC : Yes
Format settings, Reference : 2 frames
Codec ID : V_MPEG4/ISO/AVC
Duration : 1 h 58 min
Bit rate mode : Variable
Bit rate : 27.9 Mb/s
Width : 1 920 pixels
Height : 1 080 pixels
Display aspect ratio : 16:9
Frame rate mode : Constant
Frame rate : 23.976 (24000/1001) FPS
Color space : YUV
Chroma subsampling : 4:2:0
Bit depth : 8 bits
Scan type : Progressive
Bits/(Pixel*Frame) : 0.562
Stream size : 23.0 GiB (92%)
Title : www.micinehd.com
Language : English
Default : No
Forced : No
Original source medium : Blu-ray

Audio #1
ID : 2
ID in the original source m : 4354 (0x1102)
Format : AC-3
Format/Info : Audio Coding 3
Commercial name : Dolby Digital
Codec ID : A_AC3
Duration : 1 h 58 min
Bit rate mode : Constant
Bit rate : 448 kb/s
Channel(s) : 6 channels
Channel layout : L R C LFE Ls Rs
Sampling rate : 48.0 kHz
Frame rate : 31.250 FPS (1536 SPF)
Compression mode : Lossy
Stream size : 378 MiB (1%)
Title : Español (Surround 5.1)
Language : Spanish
Service kind : Complete Main
Default : Yes
Forced : No
Original source medium : Blu-ray

Audio #2
ID : 3
ID in the original source m : 4352 (0x1100)
Format : MLP FBA
Format/Info : Meridian Lossless Packing FBA
Commercial name : Dolby TrueHD
Codec ID : A_TRUEHD
Duration : 1 h 58 min
Bit rate mode : Variable
Bit rate : 1 412 kb/s
Maximum bit rate : 3 366 kb/s
Channel(s) : 6 channels
Channel layout : L R C LFE Ls Rs
Sampling rate : 48.0 kHz
Frame rate : 1 200.000 FPS (40 SPF)
Compression mode : Lossless
Stream size : 1.16 GiB (5%)
Title : Ingles (Surround 5.1)
Language : English
Default : No
Forced : No
Original source medium : Blu-ray

Audio #3
ID : 4
ID in the original source m : 4352 (0x1100)
Format : AC-3
Format/Info : Audio Coding 3
Commercial name : Dolby Digital
Codec ID : A_AC3
Duration : 1 h 58 min
Bit rate mode : Constant
Bit rate : 448 kb/s
Channel(s) : 6 channels
Channel layout : L R C LFE Ls Rs
Sampling rate : 48.0 kHz
Frame rate : 31.250 FPS (1536 SPF)
Compression mode : Lossy
Stream size : 378 MiB (1%)
Title : Ingles (Surround 5.1)
Language : English
Service kind : Complete Main
Default : No
Forced : No
Original source medium : Blu-ray

Text #1
ID : 5
Format : UTF-8
Codec ID : S_TEXT/UTF8
Codec ID/Info : UTF-8 Plain Text
Duration : 1 h 51 min
Bit rate : 47 b/s
Count of elements : 1114
Stream size : 38.8 KiB (0%)
Title : Español SRT
Language : Spanish
Default : Yes
Forced : No

Text #2
ID : 6
ID in the original source m : 4611 (0x1203)
Format : PGS
Muxing mode : zlib
Codec ID : S_HDMV/PGS
Codec ID/Info : Picture based subtitle format used on BDs/HD-DVDs
Duration : 1 h 51 min
Bit rate : 27.6 kb/s
Count of elements : 2236
Stream size : 22.0 MiB (0%)
Title : Español PGS
Language : Spanish
Default : No
Forced : No
Original source medium : Blu-ray

Text #3
ID : 7
ID in the original source m : 4608 (0x1200)
Format : PGS
Muxing mode : zlib
Codec ID : S_HDMV/PGS
Codec ID/Info : Picture based subtitle format used on BDs/HD-DVDs
Duration : 1 h 49 min
Bit rate : 30.6 kb/s
Count of elements : 2155
Stream size : 24.1 MiB (0%)
Title : Ingles PGS
Language : English
Default : No
Forced : No
Original source medium : Blu-ray

Text #4
ID : 8
ID in the original source m : 4609 (0x1201)
Format : PGS
Muxing mode : zlib
Codec ID : S_HDMV/PGS
Codec ID/Info : Picture based subtitle format used on BDs/HD-DVDs
Duration : 1 h 52 min
Bit rate : 23.5 kb/s
Count of elements : 2531
Stream size : 19.0 MiB (0%)
Title : Ingles SDH
Language : English
Default : No
Forced : No
Original source medium : Blu-ray

Menu
00:00:00.000 : en:Chapter 01
00:00:45.712 : en:Chapter 02
00:04:20.802 : en:Chapter 03
00:06:43.111 : en:Chapter 04
00:13:15.085 : en:Chapter 05
00:16:03.879 : en:Chapter 06
00:22:35.395 : en:Chapter 07
00:30:34.707 : en:Chapter 08
00:42:48.816 : en:Chapter 09
00:48:34.995 : en:Chapter 10
00:53:22.782 : en:Chapter 11
00:55:54.267 : en:Chapter 12
01:05:44.357 : en:Chapter 13
01:08:21.597 : en:Chapter 14
01:22:19.392 : en:Chapter 15
01:27:39.754 : en:Chapter 16
01:33:56.464 : en:Chapter 17
01:38:55.346 : en:Chapter 18
01:41:33.921 : en:Chapter 19
01:44:54.913 : en:Chapter 20
Format : Matroska
Format version : Version 4
File size : 4.78 GiB
Duration : 1 h 58 min
Overall bit rate mode : Variable
Overall bit rate : 5 798 kb/s
Movie name : The International (2009) - www.micinehd.com
Encoded date : UTC 2020-10-06 17:02:21
Writing application : mkvmerge v51.0.0 ('I Wish') 64-bit
Writing library : libebml v1.4.0 + libmatroska v1.6.2 / Lavf58.29.100
Cover : Yes
Attachments : cover.jpg
Team : MiCinefilosHD - Cinefilos Ripeos
Uploader : ChuyPaka
Web : www.micinehd.com

Video
ID : 1
Format : AVC
Format/Info : Advanced Video Codec
Format profile : High@L4.1
Format settings : CABAC / 4 Ref Frames
Format settings, CABAC : Yes
Format settings, Reference : 4 frames
Codec ID : V_MPEG4/ISO/AVC
Duration : 1 h 58 min
Bit rate mode : Variable
Bit rate : 5 000 kb/s
Maximum bit rate : 20.0 Mb/s
Width : 1 920 pixels
Height : 1 080 pixels
Display aspect ratio : 16:9
Frame rate mode : Constant
Frame rate : 23.976 (24000/1001) FPS
Color space : YUV
Chroma subsampling : 4:2:0
Bit depth : 8 bits
Scan type : Progressive
Bits/(Pixel*Frame) : 0.101
Stream size : 4.01 GiB (84%)
Title : www.micinehd.com
Writing library : x264 core 157 r2935 545de2f
Encoding settings : cabac=1 / ref=4 / deblock=1:0:0 / analyse=0x3:0x133 / me=umh / subme=10 / psy=1 / psy_rd=1.00:0.00 / mixed_ref=1 / me_range=24 / chroma_me=1 / trellis=2 / 8x8dct=1 / cqm=0 / deadzone=21,11 / fast_pskip=1 / chroma_qp_offset=-2 / threads=34 / lookahead_threads=5 / sliced_threads=0 / nr=0 / decimate=1 / interlaced=0 / bluray_compat=0 / constrained_intra=0 / bframes=8 / b_pyramid=2 / b_adapt=2 / b_bias=0 / direct=3 / weightb=1 / open_gop=0 / weightp=2 / keyint=240 / keyint_min=24 / scenecut=40 / intra_refresh=0 / rc_lookahead=60 / rc=abr / mbtree=1 / bitrate=5000 / ratetol=1.0 / qcomp=0.60 / qpmin=0 / qpmax=69 / qpstep=4 / vbv_maxrate=20000 / vbv_bufsize=25000 / nal_hrd=vbr / filler=0 / ip_ratio=1.40 / aq=1:1.00
Language : English
Default : Yes
Forced : No
Color range : Limited
Color primaries : BT.709
Transfer characteristics : BT.709
Matrix coefficients : BT.709

Audio #1
ID : 2
Format : AC-3
Format/Info : Audio Coding 3
Commercial name : Dolby Digital
Codec ID : A_AC3
Duration : 1 h 58 min
Bit rate mode : Constant
Bit rate : 448 kb/s
Channel(s) : 6 channels
Channel layout : L R C LFE Ls Rs
Sampling rate : 48.0 kHz
Frame rate : 31.250 FPS (1536 SPF)
Compression mode : Lossy
Stream size : 378 MiB (8%)
Title : Español
Language : Spanish
Service kind : Complete Main
Default : Yes
Forced : No

Audio #2
ID : 3
Format : AC-3
Format/Info : Audio Coding 3
Commercial name : Dolby Digital
Codec ID : A_AC3
Duration : 1 h 58 min
Bit rate mode : Constant
Bit rate : 448 kb/s
Channel(s) : 6 channels
Channel layout : L R C LFE Ls Rs
Sampling rate : 48.0 kHz
Frame rate : 31.250 FPS (1536 SPF)
Compression mode : Lossy
Stream size : 378 MiB (8%)
Title : Ingles
Language : English
Service kind : Complete Main
Default : No
Forced : No

Text #1
ID : 4
Format : UTF-8
Codec ID : S_TEXT/UTF8
Codec ID/Info : UTF-8 Plain Text
Duration : 1 h 51 min
Bit rate : 47 b/s
Count of elements : 1114
Stream size : 38.8 KiB (0%)
Title : Español SRT
Language : Spanish
Default : Yes
Forced : No

Text #2
ID : 5
Format : PGS
Muxing mode : zlib
Codec ID : S_HDMV/PGS
Codec ID/Info : Picture based subtitle format used on BDs/HD-DVDs
Duration : 1 h 51 min
Bit rate : 27.6 kb/s
Count of elements : 2236
Stream size : 22.0 MiB (0%)
Title : Español PGS
Language : Spanish
Default : No
Forced : No

Text #3
ID : 6
Format : PGS
Muxing mode : zlib
Codec ID : S_HDMV/PGS
Codec ID/Info : Picture based subtitle format used on BDs/HD-DVDs
Duration : 1 h 49 min
Bit rate : 30.6 kb/s
Count of elements : 2155
Stream size : 24.1 MiB (0%)
Title : Ingles PGS
Language : English
Default : No
Forced : No

Text #4
ID : 7
Format : PGS
Muxing mode : zlib
Codec ID : S_HDMV/PGS
Codec ID/Info : Picture based subtitle format used on BDs/HD-DVDs
Duration : 1 h 52 min
Bit rate : 23.5 kb/s
Count of elements : 2531
Stream size : 19.0 MiB (0%)
Title : Ingles SDH
Language : English
Default : No
Forced : No

Menu
00:00:00.000 : :Chapter 1
00:00:45.754 : :Chapter 2
00:04:20.886 : :Chapter 3
00:06:43.194 : :Chapter 4
00:13:15.086 : :Chapter 5
00:16:03.880 : :Chapter 6
00:22:35.396 : :Chapter 7
00:30:34.708 : :Chapter 8
00:42:48.900 : :Chapter 9
00:48:35.079 : :Chapter 10
00:53:22.783 : :Chapter 11
00:55:54.268 : :Chapter 12
01:05:44.441 : :Chapter 13
01:08:21.598 : :Chapter 14
01:22:19.393 : :Chapter 15
01:27:39.755 : :Chapter 16
01:33:56.548 : :Chapter 17
01:38:55.430 : :Chapter 18
01:41:34.005 : :Chapter 19
01:44:54.914 : :Chapter 20
Format : Matroska
Format version : Version 4
File size : 1.99 GiB
Duration : 1 h 58 min
Overall bit rate mode : Variable
Overall bit rate : 2 413 kb/s
Movie name : The International (2009) - www.micinehd.com
Encoded date : UTC 2020-10-06 17:04:55
Writing application : mkvmerge v51.0.0 ('I Wish') 64-bit
Writing library : libebml v1.4.0 + libmatroska v1.6.2 / Lavf58.29.100
Cover : Yes
Attachments : cover.jpg
Team : MiCinefilosHD - Cinefilos Ripeos
Uploader : ChuyPaka
Web : www.micinehd.com

Video
ID : 1
Format : AVC
Format/Info : Advanced Video Codec
Format profile : High@L4.1
Format settings : CABAC / 5 Ref Frames
Format settings, CABAC : Yes
Format settings, Reference : 5 frames
Codec ID : V_MPEG4/ISO/AVC
Duration : 1 h 58 min
Bit rate mode : Variable
Bit rate : 1 500 kb/s
Maximum bit rate : 10 000 kb/s
Width : 1 280 pixels
Height : 720 pixels
Display aspect ratio : 16:9
Frame rate mode : Constant
Frame rate : 23.976 (24000/1001) FPS
Color space : YUV
Chroma subsampling : 4:2:0
Bit depth : 8 bits
Scan type : Progressive
Bits/(Pixel*Frame) : 0.068
Stream size : 1.22 GiB (61%)
Title : www.micinehd.com
Writing library : x264 core 157 r2935 545de2f
Encoding settings : cabac=1 / ref=5 / deblock=1:0:0 / analyse=0x3:0x113 / me=hex / subme=8 / psy=1 / psy_rd=1.00:0.00 / mixed_ref=1 / me_range=16 / chroma_me=1 / trellis=2 / 8x8dct=1 / cqm=0 / deadzone=21,11 / fast_pskip=1 / chroma_qp_offset=-2 / threads=22 / lookahead_threads=3 / sliced_threads=0 / nr=0 / decimate=1 / interlaced=0 / bluray_compat=0 / constrained_intra=0 / bframes=3 / b_pyramid=2 / b_adapt=1 / b_bias=0 / direct=3 / weightb=1 / open_gop=0 / weightp=2 / keyint=240 / keyint_min=24 / scenecut=40 / intra_refresh=0 / rc_lookahead=50 / rc=abr / mbtree=1 / bitrate=1500 / ratetol=1.0 / qcomp=0.60 / qpmin=0 / qpmax=69 / qpstep=4 / vbv_maxrate=10000 / vbv_bufsize=12500 / nal_hrd=vbr / filler=0 / ip_ratio=1.40 / aq=1:1.00
Language : English
Default : Yes
Forced : No
Color range : Limited
Color primaries : BT.709
Transfer characteristics : BT.709
Matrix coefficients : BT.709

Audio #1
ID : 2
Format : AC-3
Format/Info : Audio Coding 3
Commercial name : Dolby Digital
Codec ID : A_AC3
Duration : 1 h 58 min
Bit rate mode : Constant
Bit rate : 448 kb/s
Channel(s) : 6 channels
Channel layout : L R C LFE Ls Rs
Sampling rate : 48.0 kHz
Frame rate : 31.250 FPS (1536 SPF)
Compression mode : Lossy
Stream size : 378 MiB (19%)
Title : Español
Language : Spanish
Service kind : Complete Main
Default : Yes
Forced : No

Audio #2
ID : 3
Format : AC-3
Format/Info : Audio Coding 3
Commercial name : Dolby Digital
Codec ID : A_AC3
Duration : 1 h 58 min
Bit rate mode : Constant
Bit rate : 448 kb/s
Channel(s) : 6 channels
Channel layout : L R C LFE Ls Rs
Sampling rate : 48.0 kHz
Frame rate : 31.250 FPS (1536 SPF)
Compression mode : Lossy
Stream size : 378 MiB (19%)
Title : Ingles
Language : English
Service kind : Complete Main
Default : No
Forced : No

Text #1
ID : 4
Format : UTF-8
Codec ID : S_TEXT/UTF8
Codec ID/Info : UTF-8 Plain Text
Duration : 1 h 51 min
Bit rate : 47 b/s
Count of elements : 1114
Stream size : 38.8 KiB (0%)
Title : Español SRT
Language : Spanish
Default : Yes
Forced : No

Text #2
ID : 5
Format : PGS
Muxing mode : zlib
Codec ID : S_HDMV/PGS
Codec ID/Info : Picture based subtitle format used on BDs/HD-DVDs
Duration : 1 h 51 min
Bit rate : 27.6 kb/s
Count of elements : 2236
Stream size : 22.0 MiB (1%)
Title : Español PGS
Language : Spanish
Default : No
Forced : No

Text #3
ID : 6
Format : PGS
Muxing mode : zlib
Codec ID : S_HDMV/PGS
Codec ID/Info : Picture based subtitle format used on BDs/HD-DVDs
Duration : 1 h 49 min
Bit rate : 30.6 kb/s
Count of elements : 2155
Stream size : 24.1 MiB (1%)
Title : Ingles PGS
Language : English
Default : No
Forced : No

Text #4
ID : 7
Format : PGS
Muxing mode : zlib
Codec ID : S_HDMV/PGS
Codec ID/Info : Picture based subtitle format used on BDs/HD-DVDs
Duration : 1 h 52 min
Bit rate : 23.5 kb/s
Count of elements : 2531
Stream size : 19.0 MiB (1%)
Title : Ingles SDH
Language : English
Default : No
Forced : No

Menu
00:00:00.000 : :Chapter 1
00:00:45.754 : :Chapter 2
00:04:20.886 : :Chapter 3
00:06:43.194 : :Chapter 4
00:13:15.086 : :Chapter 5
00:16:03.880 : :Chapter 6
00:22:35.396 : :Chapter 7
00:30:34.708 : :Chapter 8
00:42:48.900 : :Chapter 9
00:48:35.079 : :Chapter 10
00:53:22.783 : :Chapter 11
00:55:54.268 : :Chapter 12
01:05:44.441 : :Chapter 13
01:08:21.598 : :Chapter 14
01:22:19.393 : :Chapter 15
01:27:39.755 : :Chapter 16
01:33:56.548 : :Chapter 17
01:38:55.430 : :Chapter 18
01:41:34.005 : :Chapter 19
01:44:54.914 : :Chapter 20

Reportar Error Visitas: 47