Links Vip MCHD

Contenido privado

Todo aporte con enlaces de GDrive que pida permiso para descargar, se perdió, debido a que Google baneó múltiples cuentas, por lo tanto esos archivos están inaccesibles para descargar

Todos los enlaces rar son intercambiables

Problemas de contraseña o archivo dañado? repara siguiendo esta guía

Rope (1948)

Rope (1948).BDRemux 1080p.Latino-Ingles.IgnacioHD.mkv
Format : Matroska
Format version : Version 4
File size : 20.1 GiB
Duration : 1 h 20 min
Overall bit rate mode : Variable
Overall bit rate : 35.6 Mb/s
Movie name : Rope 1948 IgnacioHD
Encoded date : UTC 2020-09-08 04:47:58
Writing application : mkvmerge v49.0.0 ('Sick Of Losing Soulmates') 64-bit
Writing library : libebml v1.4.0 + libmatroska v1.6.1
Team : MiCinefilosHD - Cinéfilos Ripeos
Uploader : IgnacioHD
Web : www.micinehd.com

Video
ID : 1
ID in the original source m : 4113 (0x1011)
Format : AVC
Format/Info : Advanced Video Codec
Format profile : High@L4.1
Format settings : CABAC / 4 Ref Frames
Format settings, CABAC : Yes
Format settings, Reference : 4 frames
Codec ID : V_MPEG4/ISO/AVC
Duration : 1 h 20 min
Bit rate mode : Variable
Bit rate : 31.9 Mb/s
Maximum bit rate : 35.0 Mb/s
Width : 1 920 pixels
Height : 1 080 pixels
Display aspect ratio : 16:9
Frame rate mode : Constant
Frame rate : 23.976 (24000/1001) FPS
Color space : YUV
Chroma subsampling : 4:2:0
Bit depth : 8 bits
Scan type : Progressive
Bits/(Pixel*Frame) : 0.641
Stream size : 18.0 GiB (89%)
Language : English
Default : No
Forced : No
Original source medium : Blu-ray

Audio #1
ID : 2
ID in the original source m : 4359 (0x1107)
Format : DTS
Format/Info : Digital Theater Systems
Codec ID : A_DTS
Duration : 1 h 20 min
Bit rate mode : Constant
Bit rate : 447 kb/s
Channel(s) : 2 channels
Channel layout : L R
Sampling rate : 48.0 kHz
Frame rate : 93.750 FPS (512 SPF)
Bit depth : 24 bits
Compression mode : Lossy
Stream size : 258 MiB (1%)
Title : Latino [DTS CORE 2.0]
Language : Spanish
Default : Yes
Forced : No
Original source medium : Blu-ray

Audio #2
ID : 3
ID in the original source m : 4353 (0x1101)
Format : DTS XLL
Format/Info : Digital Theater Systems
Commercial name : DTS-HD Master Audio
Codec ID : A_DTS
Duration : 1 h 20 min
Bit rate mode : Variable
Bit rate : 1 774 kb/s
Channel(s) : 2 channels
Channel layout : L R
Sampling rate : 48.0 kHz
Frame rate : 93.750 FPS (512 SPF)
Bit depth : 24 bits
Compression mode : Lossless
Stream size : 1 024 MiB (5%)
Title : Ingles [DTS HD MA 2.0]
Language : English
Default : No
Forced : No
Original source medium : Blu-ray

Audio #3
ID : 4
ID in the original source m : 4353 (0x1101)
Format : DTS
Format/Info : Digital Theater Systems
Codec ID : A_DTS
Duration : 1 h 20 min
Bit rate mode : Constant
Bit rate : 1 509 kb/s
Channel(s) : 2 channels
Channel layout : L R
Sampling rate : 48.0 kHz
Frame rate : 93.750 FPS (512 SPF)
Bit depth : 24 bits
Compression mode : Lossy
Stream size : 871 MiB (4%)
Title : Ingles [DTS CORE 2.0]
Language : English
Default : No
Forced : No
Original source medium : Blu-ray

Text #1
ID : 5
Format : UTF-8
Codec ID : S_TEXT/UTF8
Codec ID/Info : UTF-8 Plain Text
Duration : 1 h 17 min
Bit rate : 96 b/s
Count of elements : 1321
Stream size : 55.1 KiB (0%)
Title : Latino Completo [SRT]
Language : Spanish
Default : Yes
Forced : No

Text #2
ID : 6
ID in the original source m : 4614 (0x1206)
Format : PGS
Muxing mode : zlib
Codec ID : S_HDMV/PGS
Codec ID/Info : Picture based subtitle format used on BDs/HD-DVDs
Duration : 1 h 16 min
Bit rate : 49.1 kb/s
Count of elements : 2325
Stream size : 27.0 MiB (0%)
Title : Latino Completo [PGS]
Language : Spanish
Default : No
Forced : No
Original source medium : Blu-ray

Text #3
ID : 7
ID in the original source m : 4609 (0x1201)
Format : PGS
Muxing mode : zlib
Codec ID : S_HDMV/PGS
Codec ID/Info : Picture based subtitle format used on BDs/HD-DVDs
Duration : 1 h 17 min
Bit rate : 69.8 kb/s
Count of elements : 3418
Stream size : 38.7 MiB (0%)
Title : Ingles [PGS]
Language : English
Default : No
Forced : No
Original source medium : Blu-ray

Menu
00:00:00.000 : en:Chapter 01
00:01:57.742 : en:Chapter 02
00:09:27.858 : en:Chapter 03
00:11:42.326 : en:Chapter 04
00:13:36.440 : en:Chapter 05
00:17:13.657 : en:Chapter 06
00:23:34.037 : en:Chapter 07
00:27:10.587 : en:Chapter 08
00:28:16.653 : en:Chapter 09
00:33:12.281 : en:Chapter 10
00:34:24.062 : en:Chapter 11
00:39:59.188 : en:Chapter 12
00:44:25.454 : en:Chapter 13
00:46:42.090 : en:Chapter 14
00:51:57.072 : en:Chapter 15
01:03:18.753 : en:Chapter 16
01:13:21.355 : en:Chapter 17
01:20:10.639 : en:Chapter 18

Rope (1948).BDRip1080p.Dual Latino. IgnacioHD.mkv
Format : Matroska
Format version : Version 4
File size : 3.93 GiB
Duration : 1 h 20 min
Overall bit rate mode : Variable
Overall bit rate : 6 980 kb/s
Movie name : Rope 1948 IgnacioHD
Encoded date : UTC 2020-09-08 19:52:23
Writing application : mkvmerge v49.0.0 ('Sick Of Losing Soulmates') 64-bit
Writing library : libebml v1.4.0 + libmatroska v1.6.1 / Lavf58.29.100
Team : MiCinefilosHD - Cinéfilos Ripeos
Uploader : IgnacioHD
Web : www.micinehd.com

Video
ID : 1
Format : AVC
Format/Info : Advanced Video Codec
Format profile : High@L4.1
Format settings : CABAC / 4 Ref Frames
Format settings, CABAC : Yes
Format settings, Reference : 4 frames
Codec ID : V_MPEG4/ISO/AVC
Duration : 1 h 20 min
Bit rate mode : Variable
Bit rate : 5 000 kb/s
Maximum bit rate : 20.0 Mb/s
Width : 1 920 pixels
Height : 1 080 pixels
Display aspect ratio : 16:9
Frame rate mode : Constant
Frame rate : 23.976 (24000/1001) FPS
Color space : YUV
Chroma subsampling : 4:2:0
Bit depth : 8 bits
Scan type : Progressive
Bits/(Pixel*Frame) : 0.101
Stream size : 2.81 GiB (71%)
Writing library : x264 core 157 r2935 545de2f
Encoding settings : cabac=1 / ref=4 / deblock=1:0:0 / analyse=0x3:0x133 / me=umh / subme=10 / psy=1 / psy_rd=1.00:0.00 / mixed_ref=1 / me_range=24 / chroma_me=1 / trellis=2 / 8x8dct=1 / cqm=0 / deadzone=21,11 / fast_pskip=1 / chroma_qp_offset=-2 / threads=34 / lookahead_threads=5 / sliced_threads=0 / nr=0 / decimate=1 / interlaced=0 / bluray_compat=0 / constrained_intra=0 / bframes=8 / b_pyramid=2 / b_adapt=2 / b_bias=0 / direct=3 / weightb=1 / open_gop=0 / weightp=2 / keyint=240 / keyint_min=24 / scenecut=40 / intra_refresh=0 / rc_lookahead=60 / rc=abr / mbtree=1 / bitrate=5000 / ratetol=1.0 / qcomp=0.60 / qpmin=0 / qpmax=69 / qpstep=4 / vbv_maxrate=20000 / vbv_bufsize=25000 / nal_hrd=vbr / filler=0 / ip_ratio=1.40 / aq=1:1.00
Default : Yes
Forced : No
Color range : Limited
Color primaries : BT.709
Transfer characteristics : BT.709
Matrix coefficients : BT.709

Audio #1
ID : 2
Format : DTS
Format/Info : Digital Theater Systems
Codec ID : A_DTS
Duration : 1 h 20 min
Bit rate mode : Constant
Bit rate : 447 kb/s
Channel(s) : 2 channels
Channel layout : L R
Sampling rate : 48.0 kHz
Frame rate : 93.750 FPS (512 SPF)
Bit depth : 24 bits
Compression mode : Lossy
Stream size : 258 MiB (6%)
Title : Latino [DTS CORE 2.0]
Language : Spanish
Default : Yes
Forced : No

Audio #2
ID : 3
Format : DTS
Format/Info : Digital Theater Systems
Codec ID : A_DTS
Duration : 1 h 20 min
Bit rate mode : Constant
Bit rate : 1 509 kb/s
Channel(s) : 2 channels
Channel layout : L R
Sampling rate : 48.0 kHz
Frame rate : 93.750 FPS (512 SPF)
Bit depth : 24 bits
Compression mode : Lossy
Stream size : 871 MiB (22%)
Title : Ingles [DTS CORE 2.0]
Language : English
Default : No
Forced : No

Text #1
ID : 4
Format : UTF-8
Codec ID : S_TEXT/UTF8
Codec ID/Info : UTF-8 Plain Text
Duration : 1 h 17 min
Bit rate : 96 b/s
Count of elements : 1321
Stream size : 55.1 KiB (0%)
Title : Latino Completo [SRT]
Language : Spanish
Default : Yes
Forced : No

Text #2
ID : 5
Format : PGS
Muxing mode : zlib
Codec ID : S_HDMV/PGS
Codec ID/Info : Picture based subtitle format used on BDs/HD-DVDs
Duration : 1 h 16 min
Bit rate : 49.1 kb/s
Count of elements : 2325
Stream size : 27.0 MiB (1%)
Title : Latino Completo [PGS]
Language : Spanish
Default : No
Forced : No

Text #3
ID : 6
Format : PGS
Muxing mode : zlib
Codec ID : S_HDMV/PGS
Codec ID/Info : Picture based subtitle format used on BDs/HD-DVDs
Duration : 1 h 17 min
Bit rate : 69.8 kb/s
Count of elements : 3418
Stream size : 38.7 MiB (1%)
Title : Ingles [PGS]
Language : English
Default : No
Forced : No

Menu
00:00:00.000 : :Chapter 1
00:01:57.743 : :Chapter 2
00:09:27.859 : :Chapter 3
00:11:42.327 : :Chapter 4
00:13:36.441 : :Chapter 5
00:17:13.658 : :Chapter 6
00:23:34.038 : :Chapter 7
00:27:10.712 : :Chapter 8
00:28:16.778 : :Chapter 9
00:33:12.282 : :Chapter 10
00:34:24.062 : :Chapter 11
00:39:59.314 : :Chapter 12
00:44:25.538 : :Chapter 13
00:46:42.091 : :Chapter 14
00:51:57.197 : :Chapter 15
01:03:18.878 : :Chapter 16
01:13:21.439 : :Chapter 17
01:20:10.723 : :Chapter 18

Rope (1948).BDRip 720p.Dual Latino. IgnacioHD.mkv
Format : Matroska
Format version : Version 4
File size : 1.12 GiB
Duration : 1 h 20 min
Overall bit rate mode : Variable
Overall bit rate : 1 980 kb/s
Movie name : Rope 1948 IgnacioHD
Encoded date : UTC 2020-09-08 19:57:39
Writing application : mkvmerge v49.0.0 ('Sick Of Losing Soulmates') 64-bit
Writing library : libebml v1.4.0 + libmatroska v1.6.1 / Lavf58.29.100
Team : MiCinefilosHD - Cinéfilos Ripeos
Uploader : IgnacioHD
Web : www.micinehd.com

Video
ID : 1
Format : AVC
Format/Info : Advanced Video Codec
Format profile : High@L4.1
Format settings : CABAC / 5 Ref Frames
Format settings, CABAC : Yes
Format settings, Reference : 5 frames
Codec ID : V_MPEG4/ISO/AVC
Duration : 1 h 20 min
Bit rate mode : Variable
Bit rate : 1 500 kb/s
Maximum bit rate : 10 000 kb/s
Width : 1 280 pixels
Height : 720 pixels
Display aspect ratio : 16:9
Frame rate mode : Constant
Frame rate : 23.976 (24000/1001) FPS
Color space : YUV
Chroma subsampling : 4:2:0
Bit depth : 8 bits
Scan type : Progressive
Bits/(Pixel*Frame) : 0.068
Stream size : 864 MiB (76%)
Writing library : x264 core 157 r2935 545de2f
Encoding settings : cabac=1 / ref=5 / deblock=1:0:0 / analyse=0x3:0x113 / me=hex / subme=8 / psy=1 / psy_rd=1.00:0.00 / mixed_ref=1 / me_range=16 / chroma_me=1 / trellis=2 / 8x8dct=1 / cqm=0 / deadzone=21,11 / fast_pskip=1 / chroma_qp_offset=-2 / threads=22 / lookahead_threads=3 / sliced_threads=0 / nr=0 / decimate=1 / interlaced=0 / bluray_compat=0 / constrained_intra=0 / bframes=3 / b_pyramid=2 / b_adapt=1 / b_bias=0 / direct=3 / weightb=1 / open_gop=0 / weightp=2 / keyint=240 / keyint_min=24 / scenecut=40 / intra_refresh=0 / rc_lookahead=50 / rc=abr / mbtree=1 / bitrate=1500 / ratetol=1.0 / qcomp=0.60 / qpmin=0 / qpmax=69 / qpstep=4 / vbv_maxrate=10000 / vbv_bufsize=12500 / nal_hrd=vbr / filler=0 / ip_ratio=1.40 / aq=1:1.00
Default : Yes
Forced : No
Color range : Limited
Color primaries : BT.709
Transfer characteristics : BT.709
Matrix coefficients : BT.709

Audio #1
ID : 2
Format : AC-3
Format/Info : Audio Coding 3
Commercial name : Dolby Digital
Codec ID : A_AC3
Duration : 1 h 20 min
Bit rate mode : Constant
Bit rate : 224 kb/s
Channel(s) : 2 channels
Channel layout : L R
Sampling rate : 48.0 kHz
Frame rate : 31.250 FPS (1536 SPF)
Compression mode : Lossy
Delay relative to video : -5 ms
Stream size : 129 MiB (11%)
Title : Latino [AC3 2.0]
Language : Spanish
Service kind : Complete Main
Default : Yes
Forced : No

Audio #2
ID : 3
Format : AC-3
Format/Info : Audio Coding 3
Commercial name : Dolby Digital
Codec ID : A_AC3
Duration : 1 h 20 min
Bit rate mode : Constant
Bit rate : 224 kb/s
Channel(s) : 2 channels
Channel layout : L R
Sampling rate : 48.0 kHz
Frame rate : 31.250 FPS (1536 SPF)
Compression mode : Lossy
Delay relative to video : -5 ms
Stream size : 129 MiB (11%)
Title : Ingles [AC3 2.0]
Language : English
Service kind : Complete Main
Default : No
Forced : No

Text #1
ID : 4
Format : UTF-8
Codec ID : S_TEXT/UTF8
Codec ID/Info : UTF-8 Plain Text
Duration : 1 h 17 min
Bit rate : 96 b/s
Count of elements : 1321
Stream size : 55.1 KiB (0%)
Title : Latino Completo [SRT]
Language : Spanish
Default : Yes
Forced : No

Text #2
ID : 5
Format : PGS
Muxing mode : zlib
Codec ID : S_HDMV/PGS
Codec ID/Info : Picture based subtitle format used on BDs/HD-DVDs
Duration : 1 h 16 min
Bit rate : 49.1 kb/s
Count of elements : 2325
Stream size : 27.0 MiB (2%)
Title : Latino Completo [PGS]
Language : Spanish
Default : No
Forced : No

Text #3
ID : 6
Format : PGS
Muxing mode : zlib
Codec ID : S_HDMV/PGS
Codec ID/Info : Picture based subtitle format used on BDs/HD-DVDs
Duration : 1 h 17 min
Bit rate : 69.8 kb/s
Count of elements : 3418
Stream size : 38.7 MiB (3%)
Title : Ingles [PGS]
Language : English
Default : No
Forced : No

Menu
00:00:00.000 : :Chapter 1
00:01:57.743 : :Chapter 2
00:09:27.859 : :Chapter 3
00:11:42.327 : :Chapter 4
00:13:36.441 : :Chapter 5
00:17:13.658 : :Chapter 6
00:23:34.038 : :Chapter 7
00:27:10.712 : :Chapter 8
00:28:16.778 : :Chapter 9
00:33:12.282 : :Chapter 10
00:34:24.062 : :Chapter 11
00:39:59.314 : :Chapter 12
00:44:25.538 : :Chapter 13
00:46:42.091 : :Chapter 14
00:51:57.197 : :Chapter 15
01:03:18.878 : :Chapter 16

Reportar Error Visitas: 60