Links Vip MCHD

Contenido privado

Todo aporte con enlaces de GDrive que pida permiso para descargar, se perdió, debido a que Google baneó múltiples cuentas, por lo tanto esos archivos están inaccesibles para descargar

Todos los enlaces rar son intercambiables

Problemas de contraseña o archivo dañado? repara siguiendo esta guía

Nights in Rodanthe (2008)

Format : Matroska
Format version : Version 4
File size : 4.44 GiB
Duration : 1 h 37 min
Overall bit rate : 6 540 kb/s
Movie name : Nights in Rodanthe (2008) - www.micinehd.com
Encoded date : UTC 2020-08-20 17:49:49
Writing application : mkvmerge v49.0.0 ('Sick Of Losing Soulmates') 64-bit
Writing library : libebml v1.4.0 + libmatroska v1.6.1
Cover : Yes
Attachments : cover.jpg
Encoder : Gencro
Web : Exclusivo para MiCineHD.com

Video
ID : 1
Format : AVC
Format/Info : Advanced Video Codec
Format profile : High@L4.1
Format settings : CABAC / 4 Ref Frames
Format settings, CABAC : Yes
Format settings, Reference : 4 frames
Codec ID : V_MPEG4/ISO/AVC
Duration : 1 h 37 min
Bit rate : 5 235 kb/s
Width : 1 920 pixels
Height : 1 080 pixels
Display aspect ratio : 16:9
Frame rate mode : Constant
Frame rate : 23.976 (24000/1001) FPS
Color space : YUV
Chroma subsampling : 4:2:0
Bit depth : 8 bits
Scan type : Progressive
Bits/(Pixel*Frame) : 0.105
Stream size : 3.55 GiB (80%)
Title : Nights in Rodanthe (2008) - www.micinehd.com
Writing library : x264 core 157 r2935 545de2f
Encoding settings : cabac=1 / ref=4 / deblock=1:-1:-1 / analyse=0x3:0x133 / me=esa / subme=10 / psy=1 / psy_rd=1.00:0.15 / mixed_ref=1 / me_range=24 / chroma_me=1 / trellis=2 / 8x8dct=1 / cqm=0 / deadzone=21,11 / fast_pskip=1 / chroma_qp_offset=-3 / threads=34 / lookahead_threads=5 / sliced_threads=0 / nr=0 / decimate=1 / interlaced=0 / bluray_compat=0 / constrained_intra=0 / bframes=8 / b_pyramid=2 / b_adapt=2 / b_bias=0 / direct=3 / weightb=1 / open_gop=0 / weightp=2 / keyint=240 / keyint_min=24 / scenecut=40 / intra_refresh=0 / rc_lookahead=60 / rc=crf / mbtree=1 / crf=20.0 / qcomp=0.60 / qpmin=0 / qpmax=69 / qpstep=4 / vbv_maxrate=62500 / vbv_bufsize=78125 / crf_max=0.0 / nal_hrd=none / filler=0 / ip_ratio=1.40 / aq=1:1.00
Language : English
Default : Yes
Forced : No
Color range : Limited
Color primaries : BT.709
Transfer characteristics : BT.709
Matrix coefficients : BT.709

Audio #1
ID : 2
ID in the original source m : 4354 (0x1102)
Format : AC-3
Format/Info : Audio Coding 3
Commercial name : Dolby Digital
Codec ID : A_AC3
Duration : 1 h 37 min
Bit rate mode : Constant
Bit rate : 640 kb/s
Channel(s) : 6 channels
Channel layout : L R C LFE Ls Rs
Sampling rate : 48.0 kHz
Frame rate : 31.250 FPS (1536 SPF)
Compression mode : Lossy
Stream size : 445 MiB (10%)
Title : Latino AC3 Surround 5.1
Language : Spanish
Service kind : Complete Main
Default : Yes
Forced : No
Original source medium : Blu-ray

Audio #2
ID : 3
ID in the original source m : 4352 (0x1100)
Format : AC-3
Format/Info : Audio Coding 3
Commercial name : Dolby Digital
Codec ID : A_AC3
Duration : 1 h 37 min
Bit rate mode : Constant
Bit rate : 640 kb/s
Channel(s) : 6 channels
Channel layout : L R C LFE Ls Rs
Sampling rate : 48.0 kHz
Frame rate : 31.250 FPS (1536 SPF)
Compression mode : Lossy
Stream size : 445 MiB (10%)
Title : Ingles AC3 Surround 5.1
Language : English
Service kind : Complete Main
Default : No
Forced : No
Original source medium : Blu-ray

Text #1
ID : 4
Format : UTF-8
Codec ID : S_TEXT/UTF8
Codec ID/Info : UTF-8 Plain Text
Duration : 1 h 30 min
Bit rate : 48 b/s
Count of elements : 905
Stream size : 32.1 KiB (0%)
Title : Latino SRT
Language : Spanish
Default : Yes
Forced : No

Text #2
ID : 5
Format : UTF-8
Codec ID : S_TEXT/UTF8
Codec ID/Info : UTF-8 Plain Text
Duration : 1 h 30 min
Bit rate : 49 b/s
Count of elements : 923
Stream size : 32.8 KiB (0%)
Title : Ingles SRT
Language : English
Default : No
Forced : No

Text #3
ID : 6
ID in the original source m : 4610 (0x1202)
Format : PGS
Muxing mode : zlib
Codec ID : S_HDMV/PGS
Codec ID/Info : Picture based subtitle format used on BDs/HD-DVDs
Duration : 1 h 35 min
Bit rate : 23.8 kb/s
Count of elements : 1800
Stream size : 16.2 MiB (0%)
Title : Latino PGS
Language : Spanish
Default : No
Forced : No
Original source medium : Blu-ray

Text #4
ID : 7
ID in the original source m : 4608 (0x1200)
Format : PGS
Muxing mode : zlib
Codec ID : S_HDMV/PGS
Codec ID/Info : Picture based subtitle format used on BDs/HD-DVDs
Duration : 1 h 35 min
Bit rate : 26.7 kb/s
Count of elements : 1968
Stream size : 18.3 MiB (0%)
Title : Ingles PGS SDH
Language : English
Default : No
Forced : No
Original source medium : Blu-ray

Menu
00:00:00.000 : en:Chapter 01
00:07:47.091 : en:Chapter 02
00:10:20.244 : en:Chapter 03
00:14:25.531 : en:Chapter 04
00:19:43.348 : en:Chapter 05
00:22:43.445 : en:Chapter 06
00:25:28.735 : en:Chapter 07
00:29:31.603 : en:Chapter 08
00:33:30.675 : en:Chapter 09
00:36:55.171 : en:Chapter 10
00:40:32.680 : en:Chapter 11
00:45:24.430 : en:Chapter 12
00:48:40.250 : en:Chapter 13
00:54:11.706 : en:Chapter 14
00:56:48.905 : en:Chapter 15
00:59:17.428 : en:Chapter 16
01:03:49.450 : en:Chapter 17
01:07:52.693 : en:Chapter 18
01:11:42.256 : en:Chapter 19
01:17:01.533 : en:Chapter 20
01:19:52.662 : en:Chapter 21
01:23:14.864 : en:Chapter 22
01:28:05.822 : en:Chapter 23
01:31:06.878 : en:Chapter 24
01:33:36.861 : en:Chapter 25
Format : Matroska
Format version : Version 4
File size : 2.04 GiB
Duration : 1 h 37 min
Overall bit rate : 3 004 kb/s
Movie name : Nights in Rodanthe (2008) - www.micinehd.com
Encoded date : UTC 2020-08-20 17:50:40
Writing application : mkvmerge v49.0.0 ('Sick Of Losing Soulmates') 64-bit
Writing library : libebml v1.4.0 + libmatroska v1.6.1
Cover : Yes
Attachments : cover.jpg
Encoder : Gencro
Web : Exclusivo para MiCineHD.com

Video
ID : 1
Format : AVC
Format/Info : Advanced Video Codec
Format profile : High@L4.1
Format settings : CABAC / 5 Ref Frames
Format settings, CABAC : Yes
Format settings, Reference : 5 frames
Codec ID : V_MPEG4/ISO/AVC
Duration : 1 h 37 min
Bit rate : 1 699 kb/s
Width : 1 280 pixels
Height : 720 pixels
Display aspect ratio : 16:9
Frame rate mode : Constant
Frame rate : 23.976 (24000/1001) FPS
Color space : YUV
Chroma subsampling : 4:2:0
Bit depth : 8 bits
Scan type : Progressive
Bits/(Pixel*Frame) : 0.077
Stream size : 1.15 GiB (57%)
Title : Nights in Rodanthe (2008) - www.micinehd.com
Writing library : x264 core 157 r2935 545de2f
Encoding settings : cabac=1 / ref=5 / deblock=1:-1:-1 / analyse=0x3:0x113 / me=hex / subme=8 / psy=1 / psy_rd=1.00:0.15 / mixed_ref=1 / me_range=16 / chroma_me=1 / trellis=2 / 8x8dct=1 / cqm=0 / deadzone=21,11 / fast_pskip=1 / chroma_qp_offset=-3 / threads=22 / lookahead_threads=3 / sliced_threads=0 / nr=0 / decimate=1 / interlaced=0 / bluray_compat=0 / constrained_intra=0 / bframes=3 / b_pyramid=2 / b_adapt=1 / b_bias=0 / direct=3 / weightb=1 / open_gop=0 / weightp=2 / keyint=240 / keyint_min=24 / scenecut=40 / intra_refresh=0 / rc_lookahead=50 / rc=crf / mbtree=1 / crf=21.0 / qcomp=0.60 / qpmin=0 / qpmax=69 / qpstep=4 / vbv_maxrate=62500 / vbv_bufsize=78125 / crf_max=0.0 / nal_hrd=none / filler=0 / ip_ratio=1.40 / aq=1:1.00
Language : English
Default : Yes
Forced : No
Color range : Limited
Color primaries : BT.709
Transfer characteristics : BT.709
Matrix coefficients : BT.709

Audio #1
ID : 2
ID in the original source m : 4354 (0x1102)
Format : AC-3
Format/Info : Audio Coding 3
Commercial name : Dolby Digital
Codec ID : A_AC3
Duration : 1 h 37 min
Bit rate mode : Constant
Bit rate : 640 kb/s
Channel(s) : 6 channels
Channel layout : L R C LFE Ls Rs
Sampling rate : 48.0 kHz
Frame rate : 31.250 FPS (1536 SPF)
Compression mode : Lossy
Stream size : 445 MiB (21%)
Title : Latino AC3 Surround 5.1
Language : Spanish
Service kind : Complete Main
Default : Yes
Forced : No
Original source medium : Blu-ray

Audio #2
ID : 3
ID in the original source m : 4352 (0x1100)
Format : AC-3
Format/Info : Audio Coding 3
Commercial name : Dolby Digital
Codec ID : A_AC3
Duration : 1 h 37 min
Bit rate mode : Constant
Bit rate : 640 kb/s
Channel(s) : 6 channels
Channel layout : L R C LFE Ls Rs
Sampling rate : 48.0 kHz
Frame rate : 31.250 FPS (1536 SPF)
Compression mode : Lossy
Stream size : 445 MiB (21%)
Title : Ingles AC3 Surround 5.1
Language : English
Service kind : Complete Main
Default : No
Forced : No
Original source medium : Blu-ray

Text #1
ID : 4
Format : UTF-8
Codec ID : S_TEXT/UTF8
Codec ID/Info : UTF-8 Plain Text
Duration : 1 h 30 min
Bit rate : 48 b/s
Count of elements : 905
Stream size : 32.1 KiB (0%)
Title : Latino SRT
Language : Spanish
Default : Yes
Forced : No

Text #2
ID : 5
Format : UTF-8
Codec ID : S_TEXT/UTF8
Codec ID/Info : UTF-8 Plain Text
Duration : 1 h 30 min
Bit rate : 49 b/s
Count of elements : 923
Stream size : 32.8 KiB (0%)
Title : Ingles SRT
Language : English
Default : No
Forced : No

Text #3
ID : 6
ID in the original source m : 4610 (0x1202)
Format : PGS
Muxing mode : zlib
Codec ID : S_HDMV/PGS
Codec ID/Info : Picture based subtitle format used on BDs/HD-DVDs
Duration : 1 h 35 min
Bit rate : 23.8 kb/s
Count of elements : 1800
Stream size : 16.2 MiB (1%)
Title : Latino PGS
Language : Spanish
Default : No
Forced : No
Original source medium : Blu-ray

Text #4
ID : 7
ID in the original source m : 4608 (0x1200)
Format : PGS
Muxing mode : zlib
Codec ID : S_HDMV/PGS
Codec ID/Info : Picture based subtitle format used on BDs/HD-DVDs
Duration : 1 h 35 min
Bit rate : 26.7 kb/s
Count of elements : 1968
Stream size : 18.3 MiB (1%)
Title : Ingles PGS SDH
Language : English
Default : No
Forced : No
Original source medium : Blu-ray

Menu
00:00:00.000 : en:Chapter 01
00:07:47.091 : en:Chapter 02
00:10:20.244 : en:Chapter 03
00:14:25.531 : en:Chapter 04
00:19:43.348 : en:Chapter 05
00:22:43.445 : en:Chapter 06
00:25:28.735 : en:Chapter 07
00:29:31.603 : en:Chapter 08
00:33:30.675 : en:Chapter 09
00:36:55.171 : en:Chapter 10
00:40:32.680 : en:Chapter 11
00:45:24.430 : en:Chapter 12
00:48:40.250 : en:Chapter 13
00:54:11.706 : en:Chapter 14
00:56:48.905 : en:Chapter 15
00:59:17.428 : en:Chapter 16
01:03:49.450 : en:Chapter 17
01:07:52.693 : en:Chapter 18
01:11:42.256 : en:Chapter 19
01:17:01.533 : en:Chapter 20
01:19:52.662 : en:Chapter 21
01:23:14.864 : en:Chapter 22
01:28:05.822 : en:Chapter 23
01:31:06.878 : en:Chapter 24
01:33:36.861 : en:Chapter 25
Format : Matroska
Format version : Version 4
File size : 12.7 GiB
Duration : 1 h 37 min
Overall bit rate : 18.8 Mb/s
Movie name : Nights in Rodanthe (2008) - www.micinehd.com
Encoded date : UTC 2020-08-20 17:46:10
Writing application : mkvmerge v49.0.0 ('Sick Of Losing Soulmates') 64-bit
Writing library : libebml v1.4.0 + libmatroska v1.6.1
Cover : Yes
Attachments : cover.jpg
Encoder : Gencro
Web : Exclusivo para MiCineHD.com

Video
ID : 1
ID in the original source m : 4113 (0x1011)
Format : VC-1
Format profile : Advanced@L3
Codec ID : V_MS/VFW/FOURCC / WVC1
Codec ID/Hint : Microsoft
Duration : 1 h 37 min
Bit rate : 17.5 Mb/s
Width : 1 920 pixels
Height : 1 080 pixels
Display aspect ratio : 16:9
Frame rate mode : Constant
Frame rate : 23.976 (24000/1001) FPS
Color space : YUV
Chroma subsampling : 4:2:0
Bit depth : 8 bits
Scan type : Progressive
Compression mode : Lossy
Bits/(Pixel*Frame) : 0.351
Stream size : 11.8 GiB (93%)
Title : Nights in Rodanthe (2008) - www.micinehd.com
Language : English
Default : No
Forced : No
Original source medium : Blu-ray

Audio #1
ID : 2
ID in the original source m : 4354 (0x1102)
Format : AC-3
Format/Info : Audio Coding 3
Commercial name : Dolby Digital
Codec ID : A_AC3
Duration : 1 h 37 min
Bit rate mode : Constant
Bit rate : 640 kb/s
Channel(s) : 6 channels
Channel layout : L R C LFE Ls Rs
Sampling rate : 48.0 kHz
Frame rate : 31.250 FPS (1536 SPF)
Compression mode : Lossy
Stream size : 445 MiB (3%)
Title : Latino AC3 Surround 5.1
Language : Spanish
Service kind : Complete Main
Default : Yes
Forced : No
Original source medium : Blu-ray

Audio #2
ID : 3
ID in the original source m : 4352 (0x1100)
Format : AC-3
Format/Info : Audio Coding 3
Commercial name : Dolby Digital
Codec ID : A_AC3
Duration : 1 h 37 min
Bit rate mode : Constant
Bit rate : 640 kb/s
Channel(s) : 6 channels
Channel layout : L R C LFE Ls Rs
Sampling rate : 48.0 kHz
Frame rate : 31.250 FPS (1536 SPF)
Compression mode : Lossy
Stream size : 445 MiB (3%)
Title : Ingles AC3 Surround 5.1
Language : English
Service kind : Complete Main
Default : No
Forced : No
Original source medium : Blu-ray

Text #1
ID : 4
Format : UTF-8
Codec ID : S_TEXT/UTF8
Codec ID/Info : UTF-8 Plain Text
Duration : 1 h 30 min
Bit rate : 48 b/s
Count of elements : 905
Stream size : 32.1 KiB (0%)
Title : Latino SRT
Language : Spanish
Default : Yes
Forced : No

Text #2
ID : 5
Format : UTF-8
Codec ID : S_TEXT/UTF8
Codec ID/Info : UTF-8 Plain Text
Duration : 1 h 30 min
Bit rate : 49 b/s
Count of elements : 923
Stream size : 32.8 KiB (0%)
Title : Ingles SRT
Language : English
Default : No
Forced : No

Text #3
ID : 6
ID in the original source m : 4610 (0x1202)
Format : PGS
Muxing mode : zlib
Codec ID : S_HDMV/PGS
Codec ID/Info : Picture based subtitle format used on BDs/HD-DVDs
Duration : 1 h 35 min
Bit rate : 23.8 kb/s
Count of elements : 1800
Stream size : 16.2 MiB (0%)
Title : Latino PGS
Language : Spanish
Default : No
Forced : No
Original source medium : Blu-ray

Text #4
ID : 7
ID in the original source m : 4608 (0x1200)
Format : PGS
Muxing mode : zlib
Codec ID : S_HDMV/PGS
Codec ID/Info : Picture based subtitle format used on BDs/HD-DVDs
Duration : 1 h 35 min
Bit rate : 26.7 kb/s
Count of elements : 1968
Stream size : 18.3 MiB (0%)
Title : Ingles PGS SDH
Language : English
Default : No
Forced : No
Original source medium : Blu-ray

Menu
00:00:00.000 : en:Chapter 01
00:07:47.091 : en:Chapter 02
00:10:20.244 : en:Chapter 03
00:14:25.531 : en:Chapter 04
00:19:43.348 : en:Chapter 05
00:22:43.445 : en:Chapter 06
00:25:28.735 : en:Chapter 07
00:29:31.603 : en:Chapter 08
00:33:30.675 : en:Chapter 09
00:36:55.171 : en:Chapter 10
00:40:32.680 : en:Chapter 11
00:45:24.430 : en:Chapter 12
00:48:40.250 : en:Chapter 13
00:54:11.706 : en:Chapter 14
00:56:48.905 : en:Chapter 15
00:59:17.428 : en:Chapter 16
01:03:49.450 : en:Chapter 17
01:07:52.693 : en:Chapter 18
01:11:42.256 : en:Chapter 19
01:17:01.533 : en:Chapter 20
01:19:52.662 : en:Chapter 21
01:23:14.864 : en:Chapter 22
01:28:05.822 : en:Chapter 23
01:31:06.878 : en:Chapter 24
01:33:36.861 : en:Chapter 25


Reportar Error Visitas: 46