Links Vip MCHD

Contenido privado

Todo aporte con enlaces de GDrive que pida permiso para descargar, se perdió, debido a que Google baneó múltiples cuentas, por lo tanto esos archivos están inaccesibles para descargar

Todos los enlaces rar son intercambiables

Problemas de contraseña o archivo dañado? repara siguiendo esta guía

Dawn of the Planet of the Apes (2014)

Format : Matroska
Format version : Version 4
File size : 26.6 GiB
Duration : 2 h 10 min
Overall bit rate mode : Variable
Overall bit rate : 29.2 Mb/s
Movie name : Dawn of the Planet of the Apes (2014) - www.micinehd.com
Encoded date : UTC 2020-08-22 23:47:00
Writing application : mkvmerge v49.0.0 ('Sick Of Losing Soulmates') 64-bit
Writing library : libebml v1.4.0 + libmatroska v1.6.1
Cover : Yes
Attachments : cover.jpg
Team : MiCinefilosHD - Cinéfilos Ripeos
Uploader : JARV
Web : www.micinehd.com

Video
ID : 1
ID in the original source m : 4113 (0x1011)
Format : AVC
Format/Info : Advanced Video Codec
Format profile : High@L4.1
Format settings : CABAC / 4 Ref Frames
Format settings, CABAC : Yes
Format settings, Reference : 4 frames
Codec ID : V_MPEG4/ISO/AVC
Duration : 2 h 10 min
Bit rate mode : Variable
Bit rate : 22.2 Mb/s
Maximum bit rate : 35.5 Mb/s
Width : 1 920 pixels
Height : 1 080 pixels
Display aspect ratio : 16:9
Frame rate mode : Constant
Frame rate : 23.976 (24000/1001) FPS
Color space : YUV
Chroma subsampling : 4:2:0
Bit depth : 8 bits
Scan type : Progressive
Bits/(Pixel*Frame) : 0.446
Stream size : 20.2 GiB (76%)
Title : micinehd.com
Language : English
Default : No
Forced : No
Original source medium : Blu-ray

Audio #1
ID : 2
Format : AC-3
Format/Info : Audio Coding 3
Commercial name : Dolby Digital
Codec ID : A_AC3
Duration : 2 h 10 min
Bit rate mode : Constant
Bit rate : 448 kb/s
Channel(s) : 6 channels
Channel layout : L R C LFE Ls Rs
Sampling rate : 48.0 kHz
Frame rate : 31.250 FPS (1536 SPF)
Compression mode : Lossy
Delay relative to video : 1 s 930 ms
Stream size : 418 MiB (2%)
Title : Español Latino [AC3 5.1]
Language : Spanish
Service kind : Complete Main
Default : Yes
Forced : No

Audio #2
ID : 3
ID in the original source m : 4352 (0x1100)
Format : DTS ES XLL
Format/Info : Digital Theater Systems
Commercial name : DTS-HD Master Audio
Codec ID : A_DTS
Duration : 2 h 10 min
Bit rate mode : Variable
Bit rate : 5 102 kb/s
Channel(s) : 8 channels
Channel layout : C L R Ls Rs LFE Lb Rb
Sampling rate : 48.0 kHz
Frame rate : 93.750 FPS (512 SPF)
Bit depth : 24 bits
Compression mode : Lossless
Stream size : 4.65 GiB (17%)
Title : English [DTS-HD 7.1]
Language : English
Default : No
Forced : No
Original source medium : Blu-ray

Audio #3
ID : 4
ID in the original source m : 4352 (0x1100)
Format : DTS ES
Format/Info : Digital Theater Systems
Commercial name : DTS-ES Matrix
Codec ID : A_DTS
Duration : 2 h 10 min
Bit rate mode : Constant
Bit rate : 1 509 kb/s
Channel(s) : 6 channels
Channel(s)_Original : 7 channels
ChannelLayout_Original : C L R Ls Rs Cs LFE
Sampling rate : 48.0 kHz
Frame rate : 93.750 FPS (512 SPF)
Bit depth : 24 bits
Compression mode : Lossy
Stream size : 1.37 GiB (5%)
Title : English [DTS-ES 5.1]
Language : English
Default : No
Forced : No
Original source medium : Blu-ray

Text #1
ID : 5
Format : UTF-8
Codec ID : S_TEXT/UTF8
Codec ID/Info : UTF-8 Plain Text
Duration : 1 h 40 min
Bit rate : 4 b/s
Count of elements : 123
Stream size : 3.18 KiB (0%)
Title : Forzados [SRT]
Default : Yes
Forced : Yes

Text #2
ID : 6
Format : UTF-8
Codec ID : S_TEXT/UTF8
Codec ID/Info : UTF-8 Plain Text
Duration : 1 h 57 min
Bit rate : 25 b/s
Count of elements : 866
Stream size : 22.2 KiB (0%)
Title : Completos [SRT]
Default : No
Forced : No

Text #3
ID : 7
Format : PGS
Muxing mode : zlib
Codec ID : S_HDMV/PGS
Codec ID/Info : Picture based subtitle format used on BDs/HD-DVDs
Duration : 1 h 40 min
Bit rate : 4 152 b/s
Count of elements : 246
Stream size : 2.97 MiB (0%)
Title : Forzados [PGS]
Language : Spanish
Default : No
Forced : Yes

Text #4
ID : 8
Format : PGS
Muxing mode : zlib
Codec ID : S_HDMV/PGS
Codec ID/Info : Picture based subtitle format used on BDs/HD-DVDs
Duration : 1 h 57 min
Bit rate : 24.4 kb/s
Count of elements : 1732
Stream size : 20.5 MiB (0%)
Title : Completos [PGS]
Language : Spanish
Default : No
Forced : No

Text #5
ID : 9
ID in the original source m : 4608 (0x1200)
Format : PGS
Muxing mode : zlib
Codec ID : S_HDMV/PGS
Codec ID/Info : Picture based subtitle format used on BDs/HD-DVDs
Duration : 1 h 57 min
Bit rate : 15.4 kb/s
Count of elements : 1730
Stream size : 13.0 MiB (0%)
Title : English [PGS]
Language : English
Default : No
Forced : No
Original source medium : Blu-ray

Menu
00:00:00.000 : en:Chapter 01
00:03:21.159 : en:Chapter 02
00:07:34.912 : en:Chapter 03
00:12:36.547 : en:Chapter 04
00:16:23.565 : en:Chapter 05
00:18:47.042 : en:Chapter 06
00:21:52.477 : en:Chapter 07
00:25:26.691 : en:Chapter 08
00:29:45.867 : en:Chapter 09
00:31:50.617 : en:Chapter 10
00:36:43.743 : en:Chapter 11
00:39:07.553 : en:Chapter 12
00:40:57.163 : en:Chapter 13
00:44:12.232 : en:Chapter 14
00:48:11.722 : en:Chapter 15
00:50:31.528 : en:Chapter 16
00:53:48.016 : en:Chapter 17
00:57:25.316 : en:Chapter 18
01:01:18.466 : en:Chapter 19
01:02:35.376 : en:Chapter 20
01:04:24.068 : en:Chapter 21
01:06:21.727 : en:Chapter 22
01:09:31.333 : en:Chapter 23
01:13:56.974 : en:Chapter 24
01:17:17.924 : en:Chapter 25
01:20:53.390 : en:Chapter 26
01:23:28.753 : en:Chapter 27
01:26:08.997 : en:Chapter 28
01:28:19.252 : en:Chapter 29
01:33:24.390 : en:Chapter 30
01:35:53.122 : en:Chapter 31
01:38:38.621 : en:Chapter 32
01:40:42.536 : en:Chapter 33
01:44:07.574 : en:Chapter 34
01:46:05.567 : en:Chapter 35
01:47:54.468 : en:Chapter 36
01:52:13.977 : en:Chapter 37
01:56:27.480 : en:Chapter 38
02:00:31.015 : en:Chapter 39
02:01:35.579 : en:Chapter 40


Reportar Error Visitas: 49