Links Vip MCHD

Contenido privado

Todo aporte con enlaces de GDrive que pida permiso para descargar, se perdió, debido a que Google baneó múltiples cuentas, por lo tanto esos archivos están inaccesibles para descargar

Todos los enlaces rar son intercambiables

Problemas de contraseña o archivo dañado? repara siguiendo esta guía

12 Angry Men (1957)

Format : Matroska
Format version : Version 4
File size : 17.0 GiB
Duration : 1 h 36 min
Overall bit rate mode : Variable
Overall bit rate : 25.3 Mb/s
Movie name : 12 ANGRY MEN (1957) - www.micinehd.com
Encoded date : UTC 2020-08-17 16:16:27
Writing application : mkvmerge v49.0.0 ('Sick Of Losing Soulmates') 64-bit
Writing library : libebml v1.4.0 + libmatroska v1.6.1
Cover : Yes
Attachments : cover.jpg
Team : MiCinefilosHD - Cinéfilos Ripeos
Uploader : JARV
Web : www.micinehd.com

Video
ID : 1
ID in the original source m : 4113 (0x1011)
Format : AVC
Format/Info : Advanced Video Codec
Format profile : High@L4.1
Format settings : CABAC / 4 Ref Frames
Format settings, CABAC : Yes
Format settings, Reference : 4 frames
Codec ID : V_MPEG4/ISO/AVC
Duration : 1 h 36 min
Bit rate mode : Variable
Bit rate : 23.9 Mb/s
Maximum bit rate : 37.0 Mb/s
Width : 1 920 pixels
Height : 1 080 pixels
Display aspect ratio : 16:9
Frame rate mode : Constant
Frame rate : 23.976 (24000/1001) FPS
Color space : YUV
Chroma subsampling : 4:2:0
Bit depth : 8 bits
Scan type : Progressive
Bits/(Pixel*Frame) : 0.481
Stream size : 16.1 GiB (94%)
Title : www.micinehd.com
Language : English
Default : No
Forced : No
Original source medium : Blu-ray

Audio #1
ID : 2
Format : AC-3
Format/Info : Audio Coding 3
Commercial name : Dolby Digital
Codec ID : A_AC3
Duration : 1 h 36 min
Bit rate mode : Constant
Bit rate : 160 kb/s
Channel(s) : 2 channels
Channel layout : L R
Sampling rate : 48.0 kHz
Frame rate : 31.250 FPS (1536 SPF)
Compression mode : Lossy
Stream size : 110 MiB (1%)
Title : Español Latino [AC3 2.0]
Language : Spanish
Service kind : Complete Main
Default : Yes
Forced : No

Audio #2
ID : 3
ID in the original source m : 4352 (0x1100)
Format : PCM
Format settings : Little / Signed
Codec ID : A_PCM/INT/LIT
Duration : 1 h 36 min
Bit rate mode : Constant
Bit rate : 1 152 kb/s
Channel(s) : 1 channel
Sampling rate : 48.0 kHz
Frame rate : 30.000 FPS (1600 SPF)
Bit depth : 24 bits
Stream size : 794 MiB (5%)
Title : English [PCM 1.0]
Language : English
Default : No
Forced : No
Original source medium : Blu-ray

Text #1
ID : 4
Format : UTF-8
Codec ID : S_TEXT/UTF8
Codec ID/Info : UTF-8 Plain Text
Duration : 1 h 34 min
Bit rate : 120 b/s
Count of elements : 1762
Stream size : 83.8 KiB (0%)
Title : Completos [SRT]
Language : Spanish
Default : Yes
Forced : No

Text #2
ID : 5
Format : PGS
Muxing mode : zlib
Codec ID : S_HDMV/PGS
Codec ID/Info : Picture based subtitle format used on BDs/HD-DVDs
Duration : 1 h 34 min
Bit rate : 109 kb/s
Count of elements : 3524
Stream size : 74.1 MiB (0%)
Title : Completos [PGS]
Language : Spanish
Default : No
Forced : No

Text #3
ID : 6
ID in the original source m : 4608 (0x1200)
Format : PGS
Muxing mode : zlib
Codec ID : S_HDMV/PGS
Codec ID/Info : Picture based subtitle format used on BDs/HD-DVDs
Duration : 1 h 34 min
Bit rate : 82.2 kb/s
Count of elements : 3529
Stream size : 55.6 MiB (0%)
Title : English [PGS]
Language : English
Default : No
Forced : No
Original source medium : Blu-ray

Menu
00:00:00.000 : en:Chapter 01
00:05:45.345 : en:Chapter 02
00:11:57.341 : en:Chapter 03
00:15:20.920 : en:Chapter 04
00:18:46.291 : en:Chapter 05
00:24:02.065 : en:Chapter 06
00:30:56.855 : en:Chapter 07
00:34:45.249 : en:Chapter 08
00:39:33.371 : en:Chapter 09
00:48:22.900 : en:Chapter 10
00:52:04.121 : en:Chapter 11
00:53:20.822 : en:Chapter 12
00:59:42.078 : en:Chapter 13
01:08:28.687 : en:Chapter 14
01:12:35.517 : en:Chapter 15
01:17:56.046 : en:Chapter 16
01:21:25.881 : en:Chapter 17
01:29:09.886 : en:Chapter 18


Reportar Error Visitas: 37