Links Vip MCHD

Contenido privado

Todo aporte con enlaces de GDrive que pida permiso para descargar, se perdió, debido a que Google baneó múltiples cuentas, por lo tanto esos archivos están inaccesibles para descargar

Todos los enlaces rar son intercambiables

Problemas de contraseña o archivo dañado? repara siguiendo esta guía

Happy Death Day (2017)

Format : Matroska
Format version : Version 4
File size : 25.3 GiB
Duration : 1 h 36 min
Overall bit rate mode : Variable
Overall bit rate : 37.6 Mb/s
Movie name : Happy Death Day (2017) - www.micinehd.com
Encoded date : UTC 2020-08-09 18:30:05
Writing application : mkvmerge v49.0.0 ('Sick Of Losing Soulmates') 64-bit
Writing library : libebml v1.4.0 + libmatroska v1.6.1
Cover : Yes
Attachments : cover.jpg
Team : MiCinefilosHD - Cinefilos Ripeos
Uploader : ChuyPaka
Web : www.micinehd.com

Video
ID : 1
ID in the original source m : 4113 (0x1011)
Format : AVC
Format/Info : Advanced Video Codec
Format profile : High@L4.1
Format settings : CABAC / 4 Ref Frames
Format settings, CABAC : Yes
Format settings, Reference : 4 frames
Codec ID : V_MPEG4/ISO/AVC
Duration : 1 h 36 min
Bit rate mode : Variable
Bit rate : 31.4 Mb/s
Maximum bit rate : 35.0 Mb/s
Width : 1 920 pixels
Height : 1 080 pixels
Display aspect ratio : 16:9
Frame rate mode : Constant
Frame rate : 23.976 (24000/1001) FPS
Color space : YUV
Chroma subsampling : 4:2:0
Bit depth : 8 bits
Scan type : Progressive
Bits/(Pixel*Frame) : 0.632
Stream size : 21.1 GiB (84%)
Title : www.micinehd.com
Language : English
Default : No
Forced : No
Original source medium : Blu-ray

Audio #1
ID : 2
ID in the original source m : 4353 (0x1101)
Format : DTS
Format/Info : Digital Theater Systems
Codec ID : A_DTS
Duration : 1 h 36 min
Bit rate mode : Constant
Bit rate : 768 kb/s
Channel(s) : 6 channels
Channel layout : C L R Ls Rs LFE
Sampling rate : 48.0 kHz
Frame rate : 93.750 FPS (512 SPF)
Bit depth : 24 bits
Compression mode : Lossy
Stream size : 528 MiB (2%)
Title : Español (Surround 5.1)
Language : Spanish
Default : Yes
Forced : No
Original source medium : Blu-ray

Audio #2
ID : 3
ID in the original source m : 4352 (0x1100)
Format : DTS XLL
Format/Info : Digital Theater Systems
Commercial name : DTS-HD Master Audio
Codec ID : A_DTS
Duration : 1 h 36 min
Bit rate mode : Variable
Bit rate : 3 886 kb/s
Channel(s) : 6 channels
Channel layout : C L R Ls Rs LFE
Sampling rate : 48.0 kHz
Frame rate : 93.750 FPS (512 SPF)
Bit depth : 24 bits
Compression mode : Lossless
Stream size : 2.61 GiB (10%)
Title : Ingles (Surround 5.1)
Language : English
Default : No
Forced : No
Original source medium : Blu-ray

Audio #3
ID : 4
ID in the original source m : 4352 (0x1100)
Format : DTS
Format/Info : Digital Theater Systems
Codec ID : A_DTS
Duration : 1 h 36 min
Bit rate mode : Constant
Bit rate : 1 509 kb/s
Channel(s) : 6 channels
Channel layout : C L R Ls Rs LFE
Sampling rate : 48.0 kHz
Frame rate : 93.750 FPS (512 SPF)
Bit depth : 24 bits
Compression mode : Lossy
Stream size : 1.01 GiB (4%)
Title : Ingles (Surround 5.1)
Language : English
Default : No
Forced : No
Original source medium : Blu-ray

Text #1
ID : 5
Format : UTF-8
Codec ID : S_TEXT/UTF8
Codec ID/Info : UTF-8 Plain Text
Duration : 1 h 34 min
Bit rate : 42 b/s
Count of elements : 1165
Stream size : 29.6 KiB (0%)
Title : Español SRT
Language : Spanish
Default : Yes
Forced : No

Text #2
ID : 6
Format : UTF-8
Codec ID : S_TEXT/UTF8
Codec ID/Info : UTF-8 Plain Text
Duration : 1 h 34 min
Bit rate : 1 b/s
Count of elements : 36
Stream size : 1.19 KiB (0%)
Title : Español SRT (Forzados)
Language : Spanish
Default : No
Forced : No

Text #3
ID : 7
ID in the original source m : 4609 (0x1201)
Format : PGS
Muxing mode : zlib
Codec ID : S_HDMV/PGS
Codec ID/Info : Picture based subtitle format used on BDs/HD-DVDs
Duration : 1 h 34 min
Bit rate : 27.4 kb/s
Count of elements : 2332
Stream size : 18.6 MiB (0%)
Title : Español PGS
Language : Spanish
Default : No
Forced : No
Original source medium : Blu-ray

Text #4
ID : 8
ID in the original source m : 4611 (0x1203)
Format : PGS
Muxing mode : zlib
Codec ID : S_HDMV/PGS
Codec ID/Info : Picture based subtitle format used on BDs/HD-DVDs
Duration : 1 h 34 min
Bit rate : 1 191 b/s
Count of elements : 73
Stream size : 823 KiB (0%)
Title : Español PGS (Forzados)
Language : Spanish
Default : No
Forced : No
Original source medium : Blu-ray

Text #5
ID : 9
ID in the original source m : 4608 (0x1200)
Format : PGS
Muxing mode : zlib
Codec ID : S_HDMV/PGS
Codec ID/Info : Picture based subtitle format used on BDs/HD-DVDs
Duration : 1 h 29 min
Bit rate : 40.2 kb/s
Count of elements : 2894
Stream size : 25.6 MiB (0%)
Title : Ingles SDH
Language : English
Default : No
Forced : No
Original source medium : Blu-ray

Menu
00:00:00.000 : en:Chapter 01
00:04:54.460 : en:Chapter 02
00:10:26.000 : en:Chapter 03
00:14:10.683 : en:Chapter 04
00:21:46.722 : en:Chapter 05
00:25:08.798 : en:Chapter 06
00:29:37.859 : en:Chapter 07
00:33:09.320 : en:Chapter 08
00:37:50.142 : en:Chapter 09
00:41:46.170 : en:Chapter 10
00:44:54.191 : en:Chapter 11
00:53:07.934 : en:Chapter 12
00:57:28.361 : en:Chapter 13
01:00:18.448 : en:Chapter 14
01:07:41.557 : en:Chapter 15
01:12:16.290 : en:Chapter 16
01:16:35.090 : en:Chapter 17
01:21:17.080 : en:Chapter 18
01:27:13.645 : en:Chapter 19
01:30:24.168 : en:Chapter 20
Format : Matroska
Format version : Version 4
File size : 3.52 GiB
Duration : 1 h 36 min
Overall bit rate : 5 242 kb/s
Movie name : Happy Death Day (2017) - www.micinehd.com
Encoded date : UTC 2020-08-09 18:16:57
Writing application : mkvmerge v49.0.0 ('Sick Of Losing Soulmates') 64-bit
Writing library : libebml v1.4.0 + libmatroska v1.6.1 / Lavf58.29.100
Cover : Yes
Attachments : cover.jpg
Team : MiCinefilosHD - Cinefilos Ripeos
Uploader : ChuyPaka
Web : www.micinehd.com

Video
ID : 1
Format : AVC
Format/Info : Advanced Video Codec
Format profile : High@L4.1
Format settings : CABAC / 4 Ref Frames
Format settings, CABAC : Yes
Format settings, Reference : 4 frames
Codec ID : V_MPEG4/ISO/AVC
Duration : 1 h 36 min
Bit rate : 3 069 kb/s
Width : 1 920 pixels
Height : 1 080 pixels
Display aspect ratio : 16:9
Frame rate mode : Constant
Frame rate : 23.976 (24000/1001) FPS
Color space : YUV
Chroma subsampling : 4:2:0
Bit depth : 8 bits
Scan type : Progressive
Bits/(Pixel*Frame) : 0.062
Stream size : 2.06 GiB (59%)
Title : www.micinehd.com
Writing library : x264 core 157 r2935 545de2f
Encoding settings : cabac=1 / ref=4 / deblock=1:0:0 / analyse=0x3:0x133 / me=umh / subme=10 / psy=1 / psy_rd=1.00:0.00 / mixed_ref=1 / me_range=24 / chroma_me=1 / trellis=2 / 8x8dct=1 / cqm=0 / deadzone=21,11 / fast_pskip=1 / chroma_qp_offset=-2 / threads=34 / lookahead_threads=5 / sliced_threads=0 / nr=0 / decimate=1 / interlaced=0 / bluray_compat=0 / constrained_intra=0 / bframes=8 / b_pyramid=2 / b_adapt=2 / b_bias=0 / direct=3 / weightb=1 / open_gop=0 / weightp=2 / keyint=240 / keyint_min=24 / scenecut=40 / intra_refresh=0 / rc_lookahead=60 / rc=crf / mbtree=1 / crf=20.0 / qcomp=0.60 / qpmin=0 / qpmax=69 / qpstep=4 / vbv_maxrate=62500 / vbv_bufsize=78125 / crf_max=0.0 / nal_hrd=none / filler=0 / ip_ratio=1.40 / aq=1:1.00
Language : English
Default : Yes
Forced : No
Color range : Limited
Color primaries : BT.709
Transfer characteristics : BT.709
Matrix coefficients : BT.709

Audio #1
ID : 2
Format : AC-3
Format/Info : Audio Coding 3
Commercial name : Dolby Digital
Codec ID : A_AC3
Duration : 1 h 36 min
Bit rate mode : Constant
Bit rate : 640 kb/s
Channel(s) : 6 channels
Channel layout : L R C LFE Ls Rs
Sampling rate : 48.0 kHz
Frame rate : 31.250 FPS (1536 SPF)
Compression mode : Lossy
Stream size : 440 MiB (12%)
Title : Español
Language : Spanish
Service kind : Complete Main
Default : Yes
Forced : No

Audio #2
ID : 3
Format : DTS
Format/Info : Digital Theater Systems
Codec ID : A_DTS
Duration : 1 h 36 min
Bit rate mode : Constant
Bit rate : 1 509 kb/s
Channel(s) : 6 channels
Channel layout : C L R Ls Rs LFE
Sampling rate : 48.0 kHz
Frame rate : 93.750 FPS (512 SPF)
Bit depth : 24 bits
Compression mode : Lossy
Stream size : 1.01 GiB (29%)
Title : Ingles
Language : English
Default : No
Forced : No

Text #1
ID : 4
Format : UTF-8
Codec ID : S_TEXT/UTF8
Codec ID/Info : UTF-8 Plain Text
Duration : 1 h 34 min
Bit rate : 42 b/s
Count of elements : 1165
Stream size : 29.6 KiB (0%)
Title : Español SRT
Language : Spanish
Default : Yes
Forced : No

Text #2
ID : 5
Format : UTF-8
Codec ID : S_TEXT/UTF8
Codec ID/Info : UTF-8 Plain Text
Duration : 1 h 34 min
Bit rate : 1 b/s
Count of elements : 36
Stream size : 1.19 KiB (0%)
Title : Español SRT (Forzados)
Language : Spanish
Default : No
Forced : No

Text #3
ID : 6
Format : PGS
Muxing mode : zlib
Codec ID : S_HDMV/PGS
Codec ID/Info : Picture based subtitle format used on BDs/HD-DVDs
Duration : 1 h 34 min
Bit rate : 27.4 kb/s
Count of elements : 2332
Stream size : 18.6 MiB (1%)
Title : Español PGS
Language : Spanish
Default : No
Forced : No

Text #4
ID : 7
Format : PGS
Muxing mode : zlib
Codec ID : S_HDMV/PGS
Codec ID/Info : Picture based subtitle format used on BDs/HD-DVDs
Duration : 1 h 34 min
Bit rate : 1 191 b/s
Count of elements : 73
Stream size : 823 KiB (0%)
Title : Español PGS (Forzados)
Language : Spanish
Default : No
Forced : No

Text #5
ID : 8
Format : PGS
Muxing mode : zlib
Codec ID : S_HDMV/PGS
Codec ID/Info : Picture based subtitle format used on BDs/HD-DVDs
Duration : 1 h 29 min
Bit rate : 40.2 kb/s
Count of elements : 2894
Stream size : 25.6 MiB (1%)
Title : Ingles SDH
Language : English
Default : No
Forced : No

Menu
00:00:00.000 : :Chapter 1
00:04:54.461 : :Chapter 2
00:10:26.126 : :Chapter 3
00:14:10.767 : :Chapter 4
00:21:46.806 : :Chapter 5
00:25:08.799 : :Chapter 6
00:29:37.985 : :Chapter 7
00:33:09.321 : :Chapter 8
00:37:50.143 : :Chapter 9
00:41:46.295 : :Chapter 10
00:44:54.192 : :Chapter 11
00:53:07.935 : :Chapter 12
00:57:28.362 : :Chapter 13
01:00:18.573 : :Chapter 14
01:07:41.558 : :Chapter 15
01:12:16.415 : :Chapter 16
01:16:35.091 : :Chapter 17
01:21:17.081 : :Chapter 18
01:27:13.729 : :Chapter 19
01:30:24.169 : :Chapter 20
Format : Matroska
Format version : Version 4
File size : 1.75 GiB
Duration : 1 h 36 min
Overall bit rate : 2 608 kb/s
Movie name : Happy Death Day (2017) - www.micinehd.com
Encoded date : UTC 2020-08-09 18:19:31
Writing application : mkvmerge v49.0.0 ('Sick Of Losing Soulmates') 64-bit
Writing library : libebml v1.4.0 + libmatroska v1.6.1 / Lavf58.29.100
Cover : Yes
Attachments : cover.jpg
Team : MiCinefilosHD - Cinefilos Ripeos
Uploader : ChuyPaka
Web : www.micinehd.com

Video
ID : 1
Format : AVC
Format/Info : Advanced Video Codec
Format profile : High@L4.1
Format settings : CABAC / 5 Ref Frames
Format settings, CABAC : Yes
Format settings, Reference : 5 frames
Codec ID : V_MPEG4/ISO/AVC
Duration : 1 h 36 min
Bit rate : 1 304 kb/s
Width : 1 280 pixels
Height : 720 pixels
Display aspect ratio : 16:9
Frame rate mode : Constant
Frame rate : 23.976 (24000/1001) FPS
Color space : YUV
Chroma subsampling : 4:2:0
Bit depth : 8 bits
Scan type : Progressive
Bits/(Pixel*Frame) : 0.059
Stream size : 897 MiB (50%)
Title : www.micinehd.com
Writing library : x264 core 157 r2935 545de2f
Encoding settings : cabac=1 / ref=5 / deblock=1:0:0 / analyse=0x3:0x113 / me=hex / subme=8 / psy=1 / psy_rd=1.00:0.00 / mixed_ref=1 / me_range=16 / chroma_me=1 / trellis=2 / 8x8dct=1 / cqm=0 / deadzone=21,11 / fast_pskip=1 / chroma_qp_offset=-2 / threads=22 / lookahead_threads=3 / sliced_threads=0 / nr=0 / decimate=1 / interlaced=0 / bluray_compat=0 / constrained_intra=0 / bframes=3 / b_pyramid=2 / b_adapt=1 / b_bias=0 / direct=3 / weightb=1 / open_gop=0 / weightp=2 / keyint=240 / keyint_min=24 / scenecut=40 / intra_refresh=0 / rc_lookahead=50 / rc=crf / mbtree=1 / crf=21.0 / qcomp=0.60 / qpmin=0 / qpmax=69 / qpstep=4 / vbv_maxrate=62500 / vbv_bufsize=78125 / crf_max=0.0 / nal_hrd=none / filler=0 / ip_ratio=1.40 / aq=1:1.00
Language : English
Default : Yes
Forced : No
Color range : Limited
Color primaries : BT.709
Transfer characteristics : BT.709
Matrix coefficients : BT.709

Audio #1
ID : 2
Format : AC-3
Format/Info : Audio Coding 3
Commercial name : Dolby Digital
Codec ID : A_AC3
Duration : 1 h 36 min
Bit rate mode : Constant
Bit rate : 640 kb/s
Channel(s) : 6 channels
Channel layout : L R C LFE Ls Rs
Sampling rate : 48.0 kHz
Frame rate : 31.250 FPS (1536 SPF)
Compression mode : Lossy
Stream size : 440 MiB (25%)
Title : Español
Language : Spanish
Service kind : Complete Main
Default : Yes
Forced : No

Audio #2
ID : 3
Format : AC-3
Format/Info : Audio Coding 3
Commercial name : Dolby Digital
Codec ID : A_AC3
Duration : 1 h 36 min
Bit rate mode : Constant
Bit rate : 640 kb/s
Channel(s) : 6 channels
Channel layout : L R C LFE Ls Rs
Sampling rate : 48.0 kHz
Frame rate : 31.250 FPS (1536 SPF)
Compression mode : Lossy
Stream size : 440 MiB (25%)
Title : Ingles
Language : English
Service kind : Complete Main
Default : No
Forced : No

Text #1
ID : 4
Format : UTF-8
Codec ID : S_TEXT/UTF8
Codec ID/Info : UTF-8 Plain Text
Duration : 1 h 34 min
Bit rate : 42 b/s
Count of elements : 1165
Stream size : 29.6 KiB (0%)
Title : Español SRT
Language : Spanish
Default : Yes
Forced : No

Text #2
ID : 5
Format : UTF-8
Codec ID : S_TEXT/UTF8
Codec ID/Info : UTF-8 Plain Text
Duration : 1 h 34 min
Bit rate : 1 b/s
Count of elements : 36
Stream size : 1.19 KiB (0%)
Title : Español SRT (Forzados)
Language : Spanish
Default : No
Forced : No

Text #3
ID : 6
Format : PGS
Muxing mode : zlib
Codec ID : S_HDMV/PGS
Codec ID/Info : Picture based subtitle format used on BDs/HD-DVDs
Duration : 1 h 34 min
Bit rate : 27.4 kb/s
Count of elements : 2332
Stream size : 18.6 MiB (1%)
Title : Español PGS
Language : Spanish
Default : No
Forced : No

Text #4
ID : 7
Format : PGS
Muxing mode : zlib
Codec ID : S_HDMV/PGS
Codec ID/Info : Picture based subtitle format used on BDs/HD-DVDs
Duration : 1 h 34 min
Bit rate : 1 191 b/s
Count of elements : 73
Stream size : 823 KiB (0%)
Title : Español PGS (Forzados)
Language : Spanish
Default : No
Forced : No

Text #5
ID : 8
Format : PGS
Muxing mode : zlib
Codec ID : S_HDMV/PGS
Codec ID/Info : Picture based subtitle format used on BDs/HD-DVDs
Duration : 1 h 29 min
Bit rate : 40.2 kb/s
Count of elements : 2894
Stream size : 25.6 MiB (1%)
Title : Ingles SDH
Language : English
Default : No
Forced : No

Menu
00:00:00.000 : :Chapter 1
00:04:54.461 : :Chapter 2
00:10:26.126 : :Chapter 3
00:14:10.767 : :Chapter 4
00:21:46.806 : :Chapter 5
00:25:08.799 : :Chapter 6
00:29:37.985 : :Chapter 7
00:33:09.321 : :Chapter 8
00:37:50.143 : :Chapter 9
00:41:46.295 : :Chapter 10
00:44:54.192 : :Chapter 11
00:53:07.935 : :Chapter 12
00:57:28.362 : :Chapter 13
01:00:18.573 : :Chapter 14
01:07:41.558 : :Chapter 15
01:12:16.415 : :Chapter 16
01:16:35.091 : :Chapter 17
01:21:17.081 : :Chapter 18
01:27:13.729 : :Chapter 19
01:30:24.169 : :Chapter 20

Reportar Error Visitas: 81