Links Vip MCHD

Contenido privado

Todo aporte con enlaces de GDrive que pida permiso para descargar, se perdió, debido a que Google baneó múltiples cuentas, por lo tanto esos archivos están inaccesibles para descargar

Todos los enlaces rar son intercambiables

Problemas de contraseña o archivo dañado? repara siguiendo esta guía

Che, el argentino Parte 1 (2008)

Format : Matroska
Format version : Version 4
File size : 11.7 GiB
Duration : 2 h 14 min
Overall bit rate : 12.4 Mb/s
Movie name : Che, el argentino Parte 1 (2008) - www.micinehd.com
Encoded date : UTC 2020-07-24 18:30:32
Writing application : mkvmerge v48.0.0 ('Fortress Around Your Heart') 64-bit
Writing library : libebml v1.4.0 + libmatroska v1.6.0 / Lavf58.29.100
Attachments : #93423851_156137162629707_6216900865299578880_o.jpg
Encoder : Gencro
Web : Exclusivo para MiCineHD.com

Video
ID : 1
Format : AVC
Format/Info : Advanced Video Codec
Format profile : High@L4.1
Format settings : CABAC / 4 Ref Frames
Format settings, CABAC : Yes
Format settings, Reference : 4 frames
Codec ID : V_MPEG4/ISO/AVC
Duration : 2 h 14 min
Bit rate : 9 407 kb/s
Width : 1 920 pixels
Height : 1 080 pixels
Display aspect ratio : 16:9
Frame rate mode : Constant
Frame rate : 23.976 (24000/1001) FPS
Color space : YUV
Chroma subsampling : 4:2:0
Bit depth : 8 bits
Scan type : Progressive
Bits/(Pixel*Frame) : 0.189
Stream size : 8.84 GiB (76%)
Title : Che, el argentino Parte 1 (2008) - www.micinehd.com
Writing library : x264 core 157 r2935 545de2f
Encoding settings : cabac=1 / ref=4 / deblock=1:-1:-1 / analyse=0x3:0x133 / me=esa / subme=10 / psy=1 / psy_rd=1.00:0.15 / mixed_ref=1 / me_range=24 / chroma_me=1 / trellis=2 / 8x8dct=1 / cqm=0 / deadzone=21,11 / fast_pskip=1 / chroma_qp_offset=-3 / threads=24 / lookahead_threads=4 / sliced_threads=0 / nr=0 / decimate=1 / interlaced=0 / bluray_compat=0 / constrained_intra=0 / bframes=8 / b_pyramid=2 / b_adapt=2 / b_bias=0 / direct=3 / weightb=1 / open_gop=0 / weightp=2 / keyint=240 / keyint_min=24 / scenecut=40 / intra_refresh=0 / rc_lookahead=60 / rc=crf / mbtree=1 / crf=20.0 / qcomp=0.60 / qpmin=0 / qpmax=69 / qpstep=4 / vbv_maxrate=62500 / vbv_bufsize=78125 / crf_max=0.0 / nal_hrd=none / filler=0 / ip_ratio=1.40 / aq=1:1.00
Language : Spanish
Default : Yes
Forced : No
Color range : Limited
Color primaries : BT.709
Transfer characteristics : BT.709
Matrix coefficients : BT.709

Audio #1
ID : 2
ID in the original source m : 4352 (0x1100)
Format : DTS
Format/Info : Digital Theater Systems
Codec ID : A_DTS
Duration : 2 h 14 min
Bit rate mode : Constant
Bit rate : 1 509 kb/s
Channel(s) : 6 channels
Channel layout : C L R Ls Rs LFE
Sampling rate : 48.0 kHz
Frame rate : 93.750 FPS (512 SPF)
Bit depth : 24 bits
Compression mode : Lossy
Stream size : 1.42 GiB (12%)
Title : Latino DTS Core Surround 5.1
Language : Spanish
Default : Yes
Forced : No
Original source medium : Blu-ray

Audio #2
ID : 3
ID in the original source m : 4353 (0x1101)
Format : DTS
Format/Info : Digital Theater Systems
Codec ID : A_DTS
Duration : 2 h 14 min
Bit rate mode : Constant
Bit rate : 1 509 kb/s
Channel(s) : 6 channels
Channel layout : C L R Ls Rs LFE
Sampling rate : 48.0 kHz
Frame rate : 93.750 FPS (512 SPF)
Bit depth : 24 bits
Compression mode : Lossy
Stream size : 1.42 GiB (12%)
Title : Ingles DTS Surround 5.1
Language : English
Default : No
Forced : No
Original source medium : Blu-ray

Text #1
ID : 4
ID in the original source m : 4608 (0x1200)
Format : PGS
Muxing mode : zlib
Codec ID : S_HDMV/PGS
Codec ID/Info : Picture based subtitle format used on BDs/HD-DVDs
Duration : 2 h 3 min
Bit rate : 41.9 kb/s
Count of elements : 2582
Stream size : 37.0 MiB (0%)
Title : Ingles PGS
Language : English
Default : No
Forced : No
Original source medium : Blu-ray

Text #2
ID : 5
ID in the original source m : 4609 (0x1201)
Format : PGS
Muxing mode : zlib
Codec ID : S_HDMV/PGS
Codec ID/Info : Picture based subtitle format used on BDs/HD-DVDs
Duration : 2 h 3 min
Bit rate : 38.0 kb/s
Count of elements : 2358
Stream size : 33.5 MiB (0%)
Title : Ingles PGS
Language : English
Default : No
Forced : No
Original source medium : Blu-ray

Menu
00:00:00.000 : :Chapter 1
00:03:25.372 : :Chapter 2
00:05:22.155 : :Chapter 3
00:09:23.772 : :Chapter 4
00:10:42.392 : :Chapter 5
00:14:03.051 : :Chapter 6
00:15:57.165 : :Chapter 7
00:16:49.300 : :Chapter 8
00:18:47.668 : :Chapter 9
00:22:29.348 : :Chapter 10
00:23:53.182 : :Chapter 11
00:28:42.930 : :Chapter 12
00:31:23.965 : :Chapter 13
00:36:24.474 : :Chapter 14
00:40:07.322 : :Chapter 15
00:43:19.347 : :Chapter 16
00:48:04.090 : :Chapter 17
00:50:27.066 : :Chapter 18
00:52:46.163 : :Chapter 19
00:54:13.000 : :Chapter 20
00:56:56.705 : :Chapter 21
00:58:54.031 : :Chapter 22
01:02:05.013 : :Chapter 23
01:03:32.559 : :Chapter 24
01:06:39.162 : :Chapter 25
01:08:26.603 : :Chapter 26
01:11:33.039 : :Chapter 27
01:14:59.662 : :Chapter 28
01:17:21.178 : :Chapter 29
01:21:05.903 : :Chapter 30
01:25:22.409 : :Chapter 31
01:30:46.691 : :Chapter 32
01:35:26.554 : :Chapter 33
01:39:28.463 : :Chapter 34
01:42:05.995 : :Chapter 35
01:43:59.233 : :Chapter 36
01:47:10.257 : :Chapter 37
01:51:38.692 : :Chapter 38
01:55:13.907 : :Chapter 39
01:57:36.633 : :Chapter 40
02:03:02.709 : :Chapter 41
02:06:48.768 : :Chapter 42
Format : Matroska
Format version : Version 4
File size : 4.26 GiB
Duration : 2 h 14 min
Overall bit rate : 4 539 kb/s
Movie name : Che, el argentino Parte 1 (2008) - www.micinehd.com
Encoded date : UTC 2020-07-24 18:39:34
Writing application : mkvmerge v48.0.0 ('Fortress Around Your Heart') 64-bit
Writing library : libebml v1.4.0 + libmatroska v1.6.0 / Lavf58.29.100
Attachments : #93423851_156137162629707_6216900865299578880_o.jpg
Encoder : Gencro
Web : Exclusivo para MiCineHD.com

Video
ID : 1
Format : AVC
Format/Info : Advanced Video Codec
Format profile : High@L4.1
Format settings : CABAC / 5 Ref Frames
Format settings, CABAC : Yes
Format settings, Reference : 5 frames
Codec ID : V_MPEG4/ISO/AVC
Duration : 2 h 14 min
Bit rate : 3 632 kb/s
Width : 1 280 pixels
Height : 720 pixels
Display aspect ratio : 16:9
Frame rate mode : Constant
Frame rate : 23.976 (24000/1001) FPS
Color space : YUV
Chroma subsampling : 4:2:0
Bit depth : 8 bits
Scan type : Progressive
Bits/(Pixel*Frame) : 0.164
Stream size : 3.41 GiB (80%)
Title : Che, el argentino Parte 1 (2008) - www.micinehd.com
Writing library : x264 core 157 r2935 545de2f
Encoding settings : cabac=1 / ref=5 / deblock=1:-1:-1 / analyse=0x3:0x113 / me=hex / subme=8 / psy=1 / psy_rd=1.00:0.15 / mixed_ref=1 / me_range=16 / chroma_me=1 / trellis=2 / 8x8dct=1 / cqm=0 / deadzone=21,11 / fast_pskip=1 / chroma_qp_offset=-3 / threads=22 / lookahead_threads=3 / sliced_threads=0 / nr=0 / decimate=1 / interlaced=0 / bluray_compat=0 / constrained_intra=0 / bframes=3 / b_pyramid=2 / b_adapt=1 / b_bias=0 / direct=3 / weightb=1 / open_gop=0 / weightp=2 / keyint=240 / keyint_min=24 / scenecut=40 / intra_refresh=0 / rc_lookahead=50 / rc=crf / mbtree=1 / crf=21.0 / qcomp=0.60 / qpmin=0 / qpmax=69 / qpstep=4 / vbv_maxrate=62500 / vbv_bufsize=78125 / crf_max=0.0 / nal_hrd=none / filler=0 / ip_ratio=1.40 / aq=1:1.00
Language : Spanish
Default : Yes
Forced : No
Color range : Limited
Color primaries : BT.709
Transfer characteristics : BT.709
Matrix coefficients : BT.709

Audio #1
ID : 2
Format : AC-3
Format/Info : Audio Coding 3
Commercial name : Dolby Digital
Codec ID : A_AC3
Duration : 2 h 14 min
Bit rate mode : Constant
Bit rate : 448 kb/s
Channel(s) : 6 channels
Channel layout : L R C LFE Ls Rs
Sampling rate : 48.0 kHz
Frame rate : 31.250 FPS (1536 SPF)
Compression mode : Lossy
Stream size : 431 MiB (10%)
Title : Latino
Language : Spanish
Service kind : Complete Main
Default : Yes
Forced : No

Audio #2
ID : 3
Format : AC-3
Format/Info : Audio Coding 3
Commercial name : Dolby Digital
Codec ID : A_AC3
Duration : 2 h 14 min
Bit rate mode : Constant
Bit rate : 448 kb/s
Channel(s) : 6 channels
Channel layout : L R C LFE Ls Rs
Sampling rate : 48.0 kHz
Frame rate : 31.250 FPS (1536 SPF)
Compression mode : Lossy
Stream size : 431 MiB (10%)
Title : Ingles
Language : English
Service kind : Complete Main
Default : No
Forced : No

Text
ID : 4
Format : PGS
Muxing mode : zlib
Codec ID : S_HDMV/PGS
Codec ID/Info : Picture based subtitle format used on BDs/HD-DVDs
Duration : 2 h 3 min
Bit rate : 41.9 kb/s
Count of elements : 2582
Stream size : 37.0 MiB (1%)
Title : Ingles PGS
Language : English
Default : Yes
Forced : No

Menu
00:00:00.000 : :Chapter 1
00:03:25.372 : :Chapter 2
00:05:22.155 : :Chapter 3
00:09:23.772 : :Chapter 4
00:10:42.392 : :Chapter 5
00:14:03.051 : :Chapter 6
00:15:57.165 : :Chapter 7
00:16:49.300 : :Chapter 8
00:18:47.668 : :Chapter 9
00:22:29.348 : :Chapter 10
00:23:53.182 : :Chapter 11
00:28:42.930 : :Chapter 12
00:31:23.965 : :Chapter 13
00:36:24.474 : :Chapter 14
00:40:07.322 : :Chapter 15
00:43:19.347 : :Chapter 16
00:48:04.090 : :Chapter 17
00:50:27.066 : :Chapter 18
00:52:46.163 : :Chapter 19
00:54:13.000 : :Chapter 20
00:56:56.705 : :Chapter 21
00:58:54.031 : :Chapter 22
01:02:05.013 : :Chapter 23
01:03:32.559 : :Chapter 24
01:06:39.162 : :Chapter 25
01:08:26.603 : :Chapter 26
01:11:33.039 : :Chapter 27
01:14:59.662 : :Chapter 28
01:17:21.178 : :Chapter 29
01:21:05.903 : :Chapter 30
01:25:22.409 : :Chapter 31
01:30:46.691 : :Chapter 32
01:35:26.554 : :Chapter 33
01:39:28.463 : :Chapter 34
01:42:05.995 : :Chapter 35
01:43:59.233 : :Chapter 36
01:47:10.257 : :Chapter 37
01:51:38.692 : :Chapter 38
01:55:13.907 : :Chapter 39
01:57:36.633 : :Chapter 40
02:03:02.709 : :Chapter 41
02:06:48.768 : :Chapter 42
Format : Matroska
Format version : Version 4
File size : 35.9 GiB
Duration : 2 h 14 min
Overall bit rate mode : Variable
Overall bit rate : 38.2 Mb/s
Movie name : Che, el argentino Parte 1 (2008) - www.micinehd.com
Encoded date : UTC 2020-07-24 17:45:51
Writing application : mkvmerge v48.0.0 ('Fortress Around Your Heart') 64-bit
Writing library : libebml v1.4.0 + libmatroska v1.6.0
Attachments : #93423851_156137162629707_6216900865299578880_o.jpg
Uploader : Gencro
Web : Exclusivo para MiCineHD.com

Video
ID : 1
ID in the original source m : 4113 (0x1011)
Format : AVC
Format/Info : Advanced Video Codec
Format profile : High@L4.1
Format settings : CABAC / 4 Ref Frames
Format settings, CABAC : Yes
Format settings, Reference : 4 frames
Codec ID : V_MPEG4/ISO/AVC
Duration : 2 h 14 min
Bit rate mode : Variable
Bit rate : 27.9 Mb/s
Maximum bit rate : 34.0 Mb/s
Width : 1 920 pixels
Height : 1 080 pixels
Display aspect ratio : 16:9
Frame rate mode : Constant
Frame rate : 23.976 (24000/1001) FPS
Color space : YUV
Chroma subsampling : 4:2:0
Bit depth : 8 bits
Scan type : Progressive
Bits/(Pixel*Frame) : 0.562
Stream size : 26.2 GiB (73%)
Title : Che, el argentino Parte 1 (2008) - www.micinehd.com
Language : Spanish
Default : No
Forced : No
Color range : Limited
Color primaries : BT.709
Transfer characteristics : BT.709
Matrix coefficients : BT.709
Original source medium : Blu-ray

Audio #1
ID : 2
ID in the original source m : 4352 (0x1100)
Format : DTS
Format/Info : Digital Theater Systems
Codec ID : A_DTS
Duration : 2 h 14 min
Bit rate mode : Constant
Bit rate : 1 509 kb/s
Channel(s) : 6 channels
Channel layout : C L R Ls Rs LFE
Sampling rate : 48.0 kHz
Frame rate : 93.750 FPS (512 SPF)
Bit depth : 24 bits
Compression mode : Lossy
Stream size : 1.42 GiB (4%)
Title : Latino DTS Core Surround 5.1
Language : Spanish
Default : Yes
Forced : No
Original source medium : Blu-ray

Audio #2
ID : 3
ID in the original source m : 4352 (0x1100)
Format : DTS XLL
Format/Info : Digital Theater Systems
Commercial name : DTS-HD Master Audio
Codec ID : A_DTS
Duration : 2 h 14 min
Bit rate mode : Variable
Bit rate : 3 631 kb/s
Channel(s) : 6 channels
Channel layout : C L R Ls Rs LFE
Sampling rate : 48.0 kHz
Frame rate : 93.750 FPS (512 SPF)
Bit depth : 24 bits
Compression mode : Lossless
Stream size : 3.41 GiB (9%)
Title : Latino DTS-HD Master Surround 5.1
Language : Spanish
Default : No
Forced : No
Original source medium : Blu-ray

Audio #3
ID : 4
ID in the original source m : 4353 (0x1101)
Format : DTS
Format/Info : Digital Theater Systems
Codec ID : A_DTS
Duration : 2 h 14 min
Bit rate mode : Constant
Bit rate : 1 509 kb/s
Channel(s) : 6 channels
Channel layout : C L R Ls Rs LFE
Sampling rate : 48.0 kHz
Frame rate : 93.750 FPS (512 SPF)
Bit depth : 24 bits
Compression mode : Lossy
Stream size : 1.42 GiB (4%)
Title : Ingles DTS Surround 5.1
Language : English
Default : No
Forced : No
Original source medium : Blu-ray

Audio #4
ID : 5
ID in the original source m : 4353 (0x1101)
Format : DTS XLL
Format/Info : Digital Theater Systems
Commercial name : DTS-HD Master Audio
Codec ID : A_DTS
Duration : 2 h 14 min
Bit rate mode : Variable
Bit rate : 3 629 kb/s
Channel(s) : 6 channels
Channel layout : C L R Ls Rs LFE
Sampling rate : 48.0 kHz
Frame rate : 93.750 FPS (512 SPF)
Bit depth : 24 bits
Compression mode : Lossless
Stream size : 3.41 GiB (9%)
Title : Ingles DTS-HD Master Surround 5.1
Language : English
Default : No
Forced : No
Original source medium : Blu-ray

Text #1
ID : 6
ID in the original source m : 4608 (0x1200)
Format : PGS
Muxing mode : zlib
Codec ID : S_HDMV/PGS
Codec ID/Info : Picture based subtitle format used on BDs/HD-DVDs
Duration : 2 h 3 min
Bit rate : 41.9 kb/s
Count of elements : 2582
Stream size : 37.0 MiB (0%)
Title : Ingles PGS
Language : English
Default : No
Forced : No
Original source medium : Blu-ray

Text #2
ID : 7
ID in the original source m : 4609 (0x1201)
Format : PGS
Muxing mode : zlib
Codec ID : S_HDMV/PGS
Codec ID/Info : Picture based subtitle format used on BDs/HD-DVDs
Duration : 2 h 3 min
Bit rate : 38.0 kb/s
Count of elements : 2358
Stream size : 33.5 MiB (0%)
Title : Ingles PGS
Language : English
Default : No
Forced : No
Original source medium : Blu-ray

Menu
00:00:00.000 : en:Chapter 01
00:03:25.288 : en:Chapter 02
00:05:22.030 : en:Chapter 03
00:09:23.688 : en:Chapter 04
00:10:42.391 : en:Chapter 05
00:14:02.967 : en:Chapter 06
00:15:57.164 : en:Chapter 07
00:16:49.299 : en:Chapter 08
00:18:47.543 : en:Chapter 09
00:22:29.348 : en:Chapter 10
00:23:53.098 : en:Chapter 11
00:28:42.929 : en:Chapter 12
00:31:23.840 : en:Chapter 13
00:36:24.473 : en:Chapter 14
00:40:07.196 : en:Chapter 15
00:43:19.263 : en:Chapter 16
00:48:04.089 : en:Chapter 17
00:50:27.065 : en:Chapter 18
00:52:46.163 : en:Chapter 19
00:54:12.916 : en:Chapter 20
00:56:56.704 : en:Chapter 21
00:58:54.030 : en:Chapter 22
01:02:05.012 : en:Chapter 23
01:03:32.475 : en:Chapter 24
01:06:39.161 : en:Chapter 25
01:08:26.477 : en:Chapter 26
01:11:32.955 : en:Chapter 27
01:14:59.661 : en:Chapter 28
01:17:21.053 : en:Chapter 29
01:21:05.902 : en:Chapter 30
01:25:22.408 : en:Chapter 31
01:30:46.566 : en:Chapter 32
01:35:26.429 : en:Chapter 33
01:39:28.337 : en:Chapter 34
01:42:05.994 : en:Chapter 35
01:43:59.233 : en:Chapter 36
01:47:10.132 : en:Chapter 37
01:51:38.692 : en:Chapter 38
01:55:13.907 : en:Chapter 39
01:57:36.632 : en:Chapter 40
02:03:02.708 : en:Chapter 41
02:06:48.767 : en:Chapter 42

Reportar Error Visitas: 140