Links Vip MCHD

Contenido privado

Todo aporte con enlaces de GDrive que pida permiso para descargar, se perdió, debido a que Google baneó múltiples cuentas, por lo tanto esos archivos están inaccesibles para descargar

Todos los enlaces rar son intercambiables

Problemas de contraseña o archivo dañado? repara siguiendo esta guía

Playing with Fire (2019)

Format : Matroska
Format version : Version 4
File size : 5.16 GiB
Duration : 1 h 35 min
Overall bit rate : 7 699 kb/s
Movie name : Playing with Fire (2019) - www.micinehd.com
Encoded date : UTC 2020-07-11 21:00:48
Writing application : mkvmerge v46.0.0 ('No Deeper Escape') 64-bit
Writing library : libebml v1.3.10 + libmatroska v1.5.2 / Lavf58.29.100
Encoder : Gencro
Web : Exclusivo para MiCineHD.com

Video
ID : 1
Format : AVC
Format/Info : Advanced Video Codec
Format profile : High@L4.1
Format settings : CABAC / 4 Ref Frames
Format settings, CABAC : Yes
Format settings, Reference : 4 frames
Codec ID : V_MPEG4/ISO/AVC
Duration : 1 h 35 min
Bit rate : 6 375 kb/s
Width : 1 920 pixels
Height : 1 080 pixels
Display aspect ratio : 16:9
Frame rate mode : Constant
Frame rate : 23.976 (24000/1001) FPS
Color space : YUV
Chroma subsampling : 4:2:0
Bit depth : 8 bits
Scan type : Progressive
Bits/(Pixel*Frame) : 0.128
Stream size : 4.27 GiB (83%)
Title : Playing with Fire (2019) - www.micinehd.com
Writing library : x264 core 157 r2935 545de2f
Encoding settings : cabac=1 / ref=4 / deblock=1:-1:-1 / analyse=0x3:0x133 / me=esa / subme=10 / psy=1 / psy_rd=1.00:0.15 / mixed_ref=1 / me_range=24 / chroma_me=1 / trellis=2 / 8x8dct=1 / cqm=0 / deadzone=21,11 / fast_pskip=1 / chroma_qp_offset=-3 / threads=24 / lookahead_threads=4 / sliced_threads=0 / nr=0 / decimate=1 / interlaced=0 / bluray_compat=0 / constrained_intra=0 / bframes=8 / b_pyramid=2 / b_adapt=2 / b_bias=0 / direct=3 / weightb=1 / open_gop=0 / weightp=2 / keyint=240 / keyint_min=24 / scenecut=40 / intra_refresh=0 / rc_lookahead=60 / rc=crf / mbtree=1 / crf=20.0 / qcomp=0.60 / qpmin=0 / qpmax=69 / qpstep=4 / vbv_maxrate=62500 / vbv_bufsize=78125 / crf_max=0.0 / nal_hrd=none / filler=0 / ip_ratio=1.40 / aq=1:1.00
Language : English
Default : Yes
Forced : No
Color range : Limited
Color primaries : BT.709
Transfer characteristics : BT.709
Matrix coefficients : BT.709

Audio #1
ID : 2
ID in the original source m : 4356 (0x1104)
Format : AC-3
Format/Info : Audio Coding 3
Commercial name : Dolby Digital
Codec ID : A_AC3
Duration : 1 h 35 min
Bit rate mode : Constant
Bit rate : 640 kb/s
Channel(s) : 6 channels
Channel layout : L R C LFE Ls Rs
Sampling rate : 48.0 kHz
Frame rate : 31.250 FPS (1536 SPF)
Compression mode : Lossy
Stream size : 439 MiB (8%)
Title : Latino Surround 5.1
Language : Spanish
Service kind : Complete Main
Default : Yes
Forced : No
Original source medium : Blu-ray

Audio #2
ID : 3
Format : AC-3
Format/Info : Audio Coding 3
Commercial name : Dolby Digital
Codec ID : A_AC3
Duration : 1 h 35 min
Bit rate mode : Constant
Bit rate : 640 kb/s
Channel(s) : 6 channels
Channel layout : L R C LFE Ls Rs
Sampling rate : 48.0 kHz
Frame rate : 31.250 FPS (1536 SPF)
Compression mode : Lossy
Stream size : 439 MiB (8%)
Title : Ingles Surround 5.1
Language : English
Service kind : Complete Main
Default : No
Forced : No

Text #1
ID : 4
Format : UTF-8
Codec ID : S_TEXT/UTF8
Codec ID/Info : UTF-8 Plain Text
Duration : 1 h 30 min
Bit rate : 1 b/s
Count of elements : 41
Stream size : 1.11 KiB (0%)
Title : Forzados SRT
Language : Spanish
Default : Yes
Forced : No

Text #2
ID : 5
Format : UTF-8
Codec ID : S_TEXT/UTF8
Codec ID/Info : UTF-8 Plain Text
Duration : 1 h 30 min
Bit rate : 66 b/s
Count of elements : 1411
Stream size : 43.9 KiB (0%)
Title : Latino SRT
Language : Spanish
Default : No
Forced : No

Text #3
ID : 6
Format : UTF-8
Codec ID : S_TEXT/UTF8
Codec ID/Info : UTF-8 Plain Text
Duration : 1 h 31 min
Bit rate : 73 b/s
Count of elements : 1592
Stream size : 49.1 KiB (0%)
Title : Ingles SRT
Language : English
Default : No
Forced : No

Text #4
ID : 7
ID in the original source m : 4616 (0x1208)
Format : PGS
Muxing mode : zlib
Codec ID : S_HDMV/PGS
Codec ID/Info : Picture based subtitle format used on BDs/HD-DVDs
Duration : 1 h 34 min
Bit rate : 1 083 b/s
Count of elements : 80
Stream size : 754 KiB (0%)
Title : Forzados PGS
Language : Spanish
Default : No
Forced : No
Original source medium : Blu-ray

Text #5
ID : 8
ID in the original source m : 4616 (0x1208)
Format : PGS
Muxing mode : zlib
Codec ID : S_HDMV/PGS
Codec ID/Info : Picture based subtitle format used on BDs/HD-DVDs
Duration : 1 h 35 min
Bit rate : 38.8 kb/s
Count of elements : 2824
Stream size : 26.4 MiB (1%)
Title : Latino PGS
Language : Spanish
Default : No
Forced : No
Original source medium : Blu-ray

Text #6
ID : 9
ID in the original source m : 4608 (0x1200)
Format : PGS
Muxing mode : zlib
Codec ID : S_HDMV/PGS
Codec ID/Info : Picture based subtitle format used on BDs/HD-DVDs
Duration : 1 h 30 min
Bit rate : 45.4 kb/s
Count of elements : 3042
Stream size : 29.4 MiB (1%)
Title : Ingles PGS
Language : English
Default : No
Forced : No
Original source medium : Blu-ray

Text #7
ID : 10
ID in the original source m : 4609 (0x1201)
Format : PGS
Muxing mode : zlib
Codec ID : S_HDMV/PGS
Codec ID/Info : Picture based subtitle format used on BDs/HD-DVDs
Duration : 1 h 31 min
Bit rate : 54.1 kb/s
Count of elements : 3628
Stream size : 35.2 MiB (1%)
Title : Ingles PGS SDH
Language : English
Default : No
Forced : No
Original source medium : Blu-ray

Menu
00:00:00.000 : :Chapter 1
00:04:34.483 : :Chapter 2
00:11:38.948 : :Chapter 3
00:18:42.371 : :Chapter 4
00:23:04.675 : :Chapter 5
00:28:04.308 : :Chapter 6
00:32:23.984 : :Chapter 7
00:41:30.655 : :Chapter 8
00:48:22.400 : :Chapter 9
00:52:17.760 : :Chapter 10
00:57:26.777 : :Chapter 11
01:02:15.232 : :Chapter 12
01:10:37.525 : :Chapter 13
01:16:56.237 : :Chapter 14
01:23:43.936 : :Chapter 15
01:29:19.271 : :Chapter 16
Format : Matroska
Format version : Version 4
File size : 2.28 GiB
Duration : 1 h 35 min
Overall bit rate : 3 401 kb/s
Movie name : Playing with Fire (2019) - www.micinehd.com
Encoded date : UTC 2020-07-11 21:02:27
Writing application : mkvmerge v46.0.0 ('No Deeper Escape') 64-bit
Writing library : libebml v1.3.10 + libmatroska v1.5.2 / Lavf58.29.100
Encoder : Gencro
Web : Exclusivo para MiCineHD.com

Video
ID : 1
Format : AVC
Format/Info : Advanced Video Codec
Format profile : High@L4.1
Format settings : CABAC / 5 Ref Frames
Format settings, CABAC : Yes
Format settings, Reference : 5 frames
Codec ID : V_MPEG4/ISO/AVC
Duration : 1 h 35 min
Bit rate : 2 078 kb/s
Width : 1 280 pixels
Height : 720 pixels
Display aspect ratio : 16:9
Frame rate mode : Constant
Frame rate : 23.976 (24000/1001) FPS
Color space : YUV
Chroma subsampling : 4:2:0
Bit depth : 8 bits
Scan type : Progressive
Bits/(Pixel*Frame) : 0.094
Stream size : 1.39 GiB (61%)
Title : Playing with Fire (2019) - www.micinehd.com
Writing library : x264 core 157 r2935 545de2f
Encoding settings : cabac=1 / ref=5 / deblock=1:-1:-1 / analyse=0x3:0x113 / me=hex / subme=8 / psy=1 / psy_rd=1.00:0.15 / mixed_ref=1 / me_range=16 / chroma_me=1 / trellis=2 / 8x8dct=1 / cqm=0 / deadzone=21,11 / fast_pskip=1 / chroma_qp_offset=-3 / threads=22 / lookahead_threads=3 / sliced_threads=0 / nr=0 / decimate=1 / interlaced=0 / bluray_compat=0 / constrained_intra=0 / bframes=3 / b_pyramid=2 / b_adapt=1 / b_bias=0 / direct=3 / weightb=1 / open_gop=0 / weightp=2 / keyint=240 / keyint_min=24 / scenecut=40 / intra_refresh=0 / rc_lookahead=50 / rc=crf / mbtree=1 / crf=21.0 / qcomp=0.60 / qpmin=0 / qpmax=69 / qpstep=4 / vbv_maxrate=62500 / vbv_bufsize=78125 / crf_max=0.0 / nal_hrd=none / filler=0 / ip_ratio=1.40 / aq=1:1.00
Default : Yes
Forced : No
Color range : Limited
Color primaries : BT.709
Transfer characteristics : BT.709
Matrix coefficients : BT.709

Audio #1
ID : 2
ID in the original source m : 4356 (0x1104)
Format : AC-3
Format/Info : Audio Coding 3
Commercial name : Dolby Digital
Codec ID : A_AC3
Duration : 1 h 35 min
Bit rate mode : Constant
Bit rate : 640 kb/s
Channel(s) : 6 channels
Channel layout : L R C LFE Ls Rs
Sampling rate : 48.0 kHz
Frame rate : 31.250 FPS (1536 SPF)
Compression mode : Lossy
Stream size : 439 MiB (19%)
Title : Latino Surround 5.1
Language : Spanish
Service kind : Complete Main
Default : Yes
Forced : No
Original source medium : Blu-ray

Audio #2
ID : 3
Format : AC-3
Format/Info : Audio Coding 3
Commercial name : Dolby Digital
Codec ID : A_AC3
Duration : 1 h 35 min
Bit rate mode : Constant
Bit rate : 640 kb/s
Channel(s) : 6 channels
Channel layout : L R C LFE Ls Rs
Sampling rate : 48.0 kHz
Frame rate : 31.250 FPS (1536 SPF)
Compression mode : Lossy
Stream size : 439 MiB (19%)
Title : Ingles Surround 5.1
Language : English
Service kind : Complete Main
Default : No
Forced : No

Text #1
ID : 4
Format : UTF-8
Codec ID : S_TEXT/UTF8
Codec ID/Info : UTF-8 Plain Text
Duration : 1 h 30 min
Bit rate : 1 b/s
Count of elements : 41
Stream size : 1.11 KiB (0%)
Title : Forzados SRT
Language : Spanish
Default : Yes
Forced : No

Text #2
ID : 5
Format : UTF-8
Codec ID : S_TEXT/UTF8
Codec ID/Info : UTF-8 Plain Text
Duration : 1 h 30 min
Bit rate : 66 b/s
Count of elements : 1411
Stream size : 43.9 KiB (0%)
Title : Latino SRT
Language : Spanish
Default : No
Forced : No

Text #3
ID : 6
Format : UTF-8
Codec ID : S_TEXT/UTF8
Codec ID/Info : UTF-8 Plain Text
Duration : 1 h 31 min
Bit rate : 73 b/s
Count of elements : 1592
Stream size : 49.1 KiB (0%)
Title : Ingles SRT
Language : English
Default : No
Forced : No

Text #4
ID : 7
ID in the original source m : 4616 (0x1208)
Format : PGS
Muxing mode : zlib
Codec ID : S_HDMV/PGS
Codec ID/Info : Picture based subtitle format used on BDs/HD-DVDs
Duration : 1 h 34 min
Bit rate : 1 083 b/s
Count of elements : 80
Stream size : 754 KiB (0%)
Title : Forzados PGS
Language : Spanish
Default : No
Forced : No
Original source medium : Blu-ray

Text #5
ID : 8
ID in the original source m : 4616 (0x1208)
Format : PGS
Muxing mode : zlib
Codec ID : S_HDMV/PGS
Codec ID/Info : Picture based subtitle format used on BDs/HD-DVDs
Duration : 1 h 35 min
Bit rate : 38.8 kb/s
Count of elements : 2824
Stream size : 26.4 MiB (1%)
Title : Latino PGS
Language : Spanish
Default : No
Forced : No
Original source medium : Blu-ray

Text #6
ID : 9
ID in the original source m : 4608 (0x1200)
Format : PGS
Muxing mode : zlib
Codec ID : S_HDMV/PGS
Codec ID/Info : Picture based subtitle format used on BDs/HD-DVDs
Duration : 1 h 30 min
Bit rate : 45.4 kb/s
Count of elements : 3042
Stream size : 29.4 MiB (1%)
Title : Ingles PGS
Language : English
Default : No
Forced : No
Original source medium : Blu-ray

Text #7
ID : 10
ID in the original source m : 4609 (0x1201)
Format : PGS
Muxing mode : zlib
Codec ID : S_HDMV/PGS
Codec ID/Info : Picture based subtitle format used on BDs/HD-DVDs
Duration : 1 h 31 min
Bit rate : 54.1 kb/s
Count of elements : 3628
Stream size : 35.2 MiB (2%)
Title : Ingles PGS SDH
Language : English
Default : No
Forced : No
Original source medium : Blu-ray

Menu
00:00:00.000 : :Chapter 1
00:04:34.483 : :Chapter 2
00:11:38.948 : :Chapter 3
00:18:42.371 : :Chapter 4
00:23:04.675 : :Chapter 5
00:28:04.308 : :Chapter 6
00:32:23.984 : :Chapter 7
00:41:30.655 : :Chapter 8
00:48:22.400 : :Chapter 9
00:52:17.760 : :Chapter 10
00:57:26.777 : :Chapter 11
01:02:15.232 : :Chapter 12
01:10:37.525 : :Chapter 13
01:16:56.237 : :Chapter 14
01:23:43.936 : :Chapter 15
01:29:19.271 : :Chapter 16
Format : Matroska
Format version : Version 4
File size : 22.6 GiB
Duration : 1 h 35 min
Overall bit rate mode : Variable
Overall bit rate : 33.7 Mb/s
Movie name : Playing with Fire (2019) - www.micinehd.com
Encoded date : UTC 2020-07-11 20:57:30
Writing application : mkvmerge v46.0.0 ('No Deeper Escape') 64-bit
Writing library : libebml v1.3.10 + libmatroska v1.5.2
Uploader : Gencro
Web : Exclusivo para MiCineHD.com

Video
ID : 1
ID in the original source m : 4113 (0x1011)
Format : AVC
Format/Info : Advanced Video Codec
Format profile : High@L4.1
Format settings : CABAC / 4 Ref Frames
Format settings, CABAC : Yes
Format settings, Reference : 4 frames
Codec ID : V_MPEG4/ISO/AVC
Duration : 1 h 35 min
Bit rate mode : Variable
Bit rate : 27.9 Mb/s
Maximum bit rate : 30.0 Mb/s
Width : 1 920 pixels
Height : 1 080 pixels
Display aspect ratio : 16:9
Frame rate mode : Constant
Frame rate : 23.976 (24000/1001) FPS
Color space : YUV
Chroma subsampling : 4:2:0
Bit depth : 8 bits
Scan type : Progressive
Bits/(Pixel*Frame) : 0.561
Stream size : 18.7 GiB (83%)
Title : Playing with Fire (2019) - www.micinehd.com
Language : English
Default : No
Forced : No
Original source medium : Blu-ray

Audio #1
ID : 2
ID in the original source m : 4356 (0x1104)
Format : AC-3
Format/Info : Audio Coding 3
Commercial name : Dolby Digital
Codec ID : A_AC3
Duration : 1 h 35 min
Bit rate mode : Constant
Bit rate : 640 kb/s
Channel(s) : 6 channels
Channel layout : L R C LFE Ls Rs
Sampling rate : 48.0 kHz
Frame rate : 31.250 FPS (1536 SPF)
Compression mode : Lossy
Stream size : 439 MiB (2%)
Title : Latino Surround 5.1
Language : Spanish
Service kind : Complete Main
Default : Yes
Forced : No
Original source medium : Blu-ray

Audio #2
ID : 3
ID in the original source m : 4352 (0x1100)
Format : DTS
Format/Info : Digital Theater Systems
Codec ID : A_DTS
Duration : 1 h 35 min
Bit rate mode : Constant
Bit rate : 1 509 kb/s
Channel(s) : 6 channels
Channel layout : C L R Ls Rs LFE
Sampling rate : 48.0 kHz
Frame rate : 93.750 FPS (512 SPF)
Bit depth : 24 bits
Compression mode : Lossy
Stream size : 1.01 GiB (4%)
Title : Ingles DTS Surround 5.1
Language : English
Default : No
Forced : No
Original source medium : Blu-ray

Audio #3
ID : 4
ID in the original source m : 4352 (0x1100)
Format : DTS XLL
Format/Info : Digital Theater Systems
Commercial name : DTS-HD Master Audio
Codec ID : A_DTS
Duration : 1 h 35 min
Bit rate mode : Variable
Bit rate : 3 593 kb/s
Channel(s) : 6 channels
Channel layout : C L R Ls Rs LFE
Sampling rate : 48.0 kHz
Frame rate : 93.750 FPS (512 SPF)
Bit depth : 24 bits
Compression mode : Lossless
Stream size : 2.41 GiB (11%)
Title : Ingles DTS-MA Surround 5.1
Language : English
Default : No
Forced : No
Original source medium : Blu-ray

Text #1
ID : 5
Format : UTF-8
Codec ID : S_TEXT/UTF8
Codec ID/Info : UTF-8 Plain Text
Duration : 1 h 30 min
Bit rate : 1 b/s
Count of elements : 41
Stream size : 1.11 KiB (0%)
Title : Forzados SRT
Language : Spanish
Default : No
Forced : No

Text #2
ID : 6
Format : UTF-8
Codec ID : S_TEXT/UTF8
Codec ID/Info : UTF-8 Plain Text
Duration : 1 h 30 min
Bit rate : 66 b/s
Count of elements : 1411
Stream size : 43.9 KiB (0%)
Title : Latino SRT
Language : Spanish
Default : No
Forced : No

Text #3
ID : 7
Format : UTF-8
Codec ID : S_TEXT/UTF8
Codec ID/Info : UTF-8 Plain Text
Duration : 1 h 31 min
Bit rate : 73 b/s
Count of elements : 1592
Stream size : 49.1 KiB (0%)
Title : Ingles SRT
Language : English
Default : No
Forced : No

Text #4
ID : 8
ID in the original source m : 4616 (0x1208)
Format : PGS
Muxing mode : zlib
Codec ID : S_HDMV/PGS
Codec ID/Info : Picture based subtitle format used on BDs/HD-DVDs
Duration : 1 h 34 min
Bit rate : 1 083 b/s
Count of elements : 80
Stream size : 754 KiB (0%)
Title : Forzados PGS
Language : Spanish
Default : Yes
Forced : No
Original source medium : Blu-ray

Text #5
ID : 9
ID in the original source m : 4616 (0x1208)
Format : PGS
Muxing mode : zlib
Codec ID : S_HDMV/PGS
Codec ID/Info : Picture based subtitle format used on BDs/HD-DVDs
Duration : 1 h 35 min
Bit rate : 38.8 kb/s
Count of elements : 2824
Stream size : 26.4 MiB (0%)
Title : Latino PGS
Language : Spanish
Default : No
Forced : No
Original source medium : Blu-ray

Text #6
ID : 10
ID in the original source m : 4608 (0x1200)
Format : PGS
Muxing mode : zlib
Codec ID : S_HDMV/PGS
Codec ID/Info : Picture based subtitle format used on BDs/HD-DVDs
Duration : 1 h 30 min
Bit rate : 45.4 kb/s
Count of elements : 3042
Stream size : 29.4 MiB (0%)
Title : Ingles PGS
Language : English
Default : No
Forced : No
Original source medium : Blu-ray

Text #7
ID : 11
ID in the original source m : 4609 (0x1201)
Format : PGS
Muxing mode : zlib
Codec ID : S_HDMV/PGS
Codec ID/Info : Picture based subtitle format used on BDs/HD-DVDs
Duration : 1 h 31 min
Bit rate : 54.1 kb/s
Count of elements : 3628
Stream size : 35.2 MiB (0%)
Title : Ingles PGS SDH
Language : English
Default : No
Forced : No
Original source medium : Blu-ray

Menu
00:00:00.000 : en:Chapter 01
00:04:34.482 : en:Chapter 02
00:11:38.823 : en:Chapter 03
00:18:42.246 : en:Chapter 04
00:23:04.674 : en:Chapter 05
00:28:04.224 : en:Chapter 06
00:32:23.983 : en:Chapter 07
00:41:30.571 : en:Chapter 08
00:48:22.399 : en:Chapter 09
00:52:17.759 : en:Chapter 10
00:57:26.693 : en:Chapter 11
01:02:15.231 : en:Chapter 12
01:10:37.524 : en:Chapter 13
01:16:56.236 : en:Chapter 14
01:23:43.852 : en:Chapter 15
01:29:19.270 : en:Chapter 16

Reportar Error Visitas: 25