Links Vip MCHD

Contenido privado

Todo aporte con enlaces de GDrive que pida permiso para descargar, se perdió, debido a que Google baneó múltiples cuentas, por lo tanto esos archivos están inaccesibles para descargar

Todos los enlaces rar son intercambiables

Problemas de contraseña o archivo dañado? repara siguiendo esta guía

Underwater (2020)

Format : Matroska
Format version : Version 2
File size : 22.3 GiB
Duration : 1 h 34 min
Overall bit rate mode : Variable
Overall bit rate : 33.6 Mb/s
Movie name : Underwater (2020) - MiCineHD.com
Encoded date : UTC 2020-04-06 00:23:59
Writing application : MakeMKV v1.15.0 win(x64-release)
Writing library : libmakemkv v1.15.0 (1.3.5/1.4.7) win(x64-release)
Cover : Yes
Attachments : cover.jpg / cover_land.jpg

Video
ID : 1
ID in the original source m : 4113 (0x1011)
Format : AVC
Format/Info : Advanced Video Codec
Format profile : High@L4.1
Format settings : CABAC / 2 Ref Frames
Format settings, CABAC : Yes
Format settings, Reference : 2 frames
Codec ID : V_MPEG4/ISO/AVC
Duration : 1 h 34 min
Bit rate mode : Variable
Bit rate : 26.4 Mb/s
Width : 1 920 pixels
Height : 1 080 pixels
Display aspect ratio : 16:9
Frame rate mode : Constant
Frame rate : 23.976 (24000/1001) FPS
Color space : YUV
Chroma subsampling : 4:2:0
Bit depth : 8 bits
Scan type : Progressive
Bits/(Pixel*Frame) : 0.531
Stream size : 17.5 GiB (79%)
Language : English
Default : No
Forced : No
Original source medium : Blu-ray

Audio #1
ID : 2
ID in the original source m : 4354 (0x1102)
Format : AC-3
Format/Info : Audio Coding 3
Commercial name : Dolby Digital
Codec ID : A_AC3
Duration : 1 h 34 min
Bit rate mode : Constant
Bit rate : 448 kb/s
Channel(s) : 6 channels
Channel layout : L R C LFE Ls Rs
Sampling rate : 48.0 kHz
Frame rate : 31.250 FPS (1536 SPF)
Compression mode : Lossy
Stream size : 304 MiB (1%)
Title : Surround 5.1
Language : Spanish
Service kind : Complete Main
Default : Yes
Forced : No
Original source medium : Blu-ray

Audio #2
ID : 3
ID in the original source m : 4352 (0x1100)
Format : DTS XLL
Format/Info : Digital Theater Systems
Commercial name : DTS-HD Master Audio
Codec ID : A_DTS
Duration : 1 h 34 min
Bit rate mode : Variable
Bit rate : 5 157 kb/s
Channel(s) : 8 channels
Channel layout : C L R LFE Lb Rb Lss Rss
Sampling rate : 48.0 kHz
Frame rate : 93.750 FPS (512 SPF)
Bit depth : 24 bits
Compression mode : Lossless
Stream size : 3.42 GiB (15%)
Title : Surround 7.1
Language : English
Default : No
Forced : No
Original source medium : Blu-ray

Audio #3
ID : 4
ID in the original source m : 4352 (0x1100)
Format : DTS
Format/Info : Digital Theater Systems
Codec ID : A_DTS
Duration : 1 h 34 min
Bit rate mode : Constant
Bit rate : 1 509 kb/s
Channel(s) : 6 channels
Channel layout : C L R Ls Rs LFE
Sampling rate : 48.0 kHz
Frame rate : 93.750 FPS (512 SPF)
Bit depth : 24 bits
Compression mode : Lossy
Stream size : 1.00 GiB (4%)
Title : Surround 5.1
Language : English
Default : No
Forced : No
Original source medium : Blu-ray

Text #1
ID : 5
ID in the original source m : 4609 (0x1201)
Format : PGS
Codec ID : S_HDMV/PGS
Codec ID/Info : Picture based subtitle format used on BDs/HD-DVDs
Duration : 1 h 33 min
Bit rate : 27.5 kb/s
Count of elements : 2284
Stream size : 18.4 MiB (0%)
Language : Spanish
Default : No
Forced : No
Original source medium : Blu-ray

Text #2
ID : 6
ID in the original source m : 4609 (0x1201)
Format : PGS
Codec ID : S_HDMV/PGS
Codec ID/Info : Picture based subtitle format used on BDs/HD-DVDs
Duration : 1 h 33 min
Bit rate : 2 084 b/s
Count of elements : 112
Stream size : 1.40 MiB (0%)
Language : Spanish
Default : Yes
Forced : Yes
Original source medium : Blu-ray

Text #3
ID : 7
ID in the original source m : 4608 (0x1200)
Format : PGS
Codec ID : S_HDMV/PGS
Codec ID/Info : Picture based subtitle format used on BDs/HD-DVDs
Duration : 1 h 34 min
Bit rate : 34.9 kb/s
Count of elements : 2708
Stream size : 23.6 MiB (0%)
Language : English
Default : No
Forced : No
Original source medium : Blu-ray

Menu
00:00:00.000 : en:Chapter 01
00:06:17.627 : en:Chapter 02
00:09:39.537 : en:Chapter 03
00:13:25.638 : en:Chapter 04
00:16:21.897 : en:Chapter 05
00:20:40.322 : en:Chapter 06
00:22:51.495 : en:Chapter 07
00:27:11.171 : en:Chapter 08
00:30:51.140 : en:Chapter 09
00:34:26.647 : en:Chapter 10
00:39:25.154 : en:Chapter 11
00:43:41.785 : en:Chapter 12
00:48:40.167 : en:Chapter 13
00:53:58.109 : en:Chapter 14
00:56:00.690 : en:Chapter 15
01:01:53.543 : en:Chapter 16
01:05:26.172 : en:Chapter 17
01:08:12.588 : en:Chapter 18
01:13:52.886 : en:Chapter 19
01:16:04.476 : en:Chapter 20
01:18:34.835 : en:Chapter 21
01:21:22.085 : en:Chapter 22
01:23:04.062 : en:Chapter 23
01:29:51.803 : en:Chapter 24

Reportar Error Visitas: 66