Links Vip MCHD

Contenido Exclusivo

Todo aporte con enlaces de GDrive que pida permiso para descargar, se perdió, debido a que Google baneó múltiples cuentas, por lo tanto esos archivos están inaccesibles para descargar

Todos los enlaces rar son intercambiables

Problemas de contraseña o archivo dañado? repara siguiendo esta guía

Frozen (2019)

Format : Matroska
Format version : Version 4
File size : 4.61 GiB
Duration : 1 h 43 min
Overall bit rate : 6 393 kb/s
Movie name : Frozen II (2019) - MiCineHD.com
Encoded date : UTC 2020-02-11 16:02:44
Writing application : mkvmerge v42.0.0 ('Overtime') 64-bit
Writing library : libebml v1.3.10 + libmatroska v1.5.2
Aporte exclusivo para : MiCineHD.com
Uploader : CharlX

Video
ID : 1
Format : AVC
Format/Info : Advanced Video Codec
Format profile : High@L4
Format settings : CABAC / 4 Ref Frames
Format settings, CABAC : Yes
Format settings, Reference : 4 frames
Codec ID : V_MPEG4/ISO/AVC
Duration : 1 h 43 min
Bit rate mode : Constant
Bit rate : 5 494 kb/s
Nominal bit rate : 10 000 kb/s
Width : 1 920 pixels
Height : 800 pixels
Display aspect ratio : 2.40:1
Frame rate mode : Constant
Frame rate : 23.976 (24000/1001) FPS
Color space : YUV
Chroma subsampling : 4:2:0
Bit depth : 8 bits
Scan type : Progressive
Bits/(Pixel*Frame) : 0.149
Stream size : 3.96 GiB (86%)
Title : MiCineHD.com
Language : English
Default : Yes
Forced : No
Color range : Limited
Color primaries : BT.709
Transfer characteristics : BT.709
Matrix coefficients : BT.709

Audio #1
ID : 2
Format : AC-3
Format/Info : Audio Coding 3
Commercial name : Dolby Digital
Codec ID : A_AC3
Duration : 1 h 43 min
Bit rate mode : Constant
Bit rate : 256 kb/s
Channel(s) : 2 channels
Channel layout : L R
Sampling rate : 48.0 kHz
Frame rate : 31.250 FPS (1536 SPF)
Compression mode : Lossy
Stream size : 189 MiB (4%)
Title : Español Latino [AC3 2.0 iTunes]
Language : Spanish
Service kind : Complete Main
Default : Yes
Forced : No

Audio #2
ID : 3
Format : E-AC-3
Format/Info : Enhanced AC-3
Commercial name : Dolby Digital Plus
Codec ID : A_EAC3
Duration : 1 h 43 min
Bit rate mode : Constant
Bit rate : 640 kb/s
Channel(s) : 6 channels
Channel layout : L R C LFE Ls Rs
Sampling rate : 48.0 kHz
Frame rate : 31.250 FPS (1536 SPF)
Compression mode : Lossy
Stream size : 472 MiB (10%)
Title : Inglés [E-AC3 5.1 Amazon]
Language : English
Service kind : Complete Main
Default : No
Forced : No

Text
ID : 4
Format : UTF-8
Codec ID : S_TEXT/UTF8
Codec ID/Info : UTF-8 Plain Text
Duration : 1 h 41 min
Bit rate : 53 b/s
Count of elements : 1311
Stream size : 39.4 KiB (0%)
Title : Español Latino [SRT]
Language : Spanish
Default : No
Forced : No
Format : Matroska
Format version : Version 4
File size : 3.89 GiB
Duration : 1 h 43 min
Overall bit rate : 5 395 kb/s
Movie name : Frozen II (2019) - MiCineHD.com
Encoded date : UTC 2020-02-17 00:26:16
Writing application : mkvmerge v42.0.0 ('Overtime') 64-bit
Writing library : libebml v1.3.10 + libmatroska v1.5.2
Aporte exclusivo para : MiCineHD.com
Encoder : CharlX

Video
ID : 1
Format : AVC
Format/Info : Advanced Video Codec
Format profile : High@L4.1
Format settings : CABAC / 4 Ref Frames
Format settings, CABAC : Yes
Format settings, Reference : 4 frames
Codec ID : V_MPEG4/ISO/AVC
Duration : 1 h 43 min
Bit rate : 3 208 kb/s
Width : 1 920 pixels
Height : 1 080 pixels
Display aspect ratio : 16:9
Frame rate mode : Constant
Frame rate : 23.976 (24000/1001) FPS
Color space : YUV
Chroma subsampling : 4:2:0
Bit depth : 8 bits
Scan type : Progressive
Bits/(Pixel*Frame) : 0.065
Stream size : 2.31 GiB (59%)
Title : MiCineHD.com
Writing library : x264 core 157 r2935 545de2f
Encoding settings : cabac=1 / ref=4 / deblock=1:0:0 / analyse=0x3:0x133 / me=umh / subme=10 / psy=1 / psy_rd=1.00:0.00 / mixed_ref=1 / me_range=24 / chroma_me=1 / trellis=2 / 8x8dct=1 / cqm=0 / deadzone=21,11 / fast_pskip=1 / chroma_qp_offset=-2 / threads=12 / lookahead_threads=2 / sliced_threads=0 / nr=0 / decimate=1 / interlaced=0 / bluray_compat=0 / constrained_intra=0 / bframes=8 / b_pyramid=2 / b_adapt=2 / b_bias=0 / direct=3 / weightb=1 / open_gop=0 / weightp=2 / keyint=240 / keyint_min=24 / scenecut=40 / intra_refresh=0 / rc_lookahead=60 / rc=crf / mbtree=1 / crf=20.0 / qcomp=0.60 / qpmin=0 / qpmax=69 / qpstep=4 / vbv_maxrate=62500 / vbv_bufsize=78125 / crf_max=0.0 / nal_hrd=none / filler=0 / ip_ratio=1.40 / aq=1:1.00
Language : Spanish
Default : Yes
Forced : No
Color range : Limited
Color primaries : BT.709
Transfer characteristics : BT.709
Matrix coefficients : BT.709

Audio #1
ID : 2
Format : AC-3
Format/Info : Audio Coding 3
Commercial name : Dolby Digital
Codec ID : A_AC3
Duration : 1 h 43 min
Bit rate mode : Constant
Bit rate : 640 kb/s
Channel(s) : 6 channels
Channel layout : L R C LFE Ls Rs
Sampling rate : 48.0 kHz
Frame rate : 31.250 FPS (1536 SPF)
Compression mode : Lossy
Stream size : 473 MiB (12%)
Title : Español Latino [AC3 5.1]
Language : Spanish
Service kind : Complete Main
Default : Yes
Forced : No

Audio #2
ID : 3
Format : DTS
Format/Info : Digital Theater Systems
Codec ID : A_DTS
Duration : 1 h 43 min
Bit rate mode : Constant
Bit rate : 1 509 kb/s
Channel(s) : 6 channels
Channel layout : C L R Ls Rs LFE
Sampling rate : 48.0 kHz
Frame rate : 93.750 FPS (512 SPF)
Bit depth : 24 bits
Compression mode : Lossy
Stream size : 1.09 GiB (28%)
Title : Inglés [DTS Core 5.1]
Language : English
Default : No
Forced : No

Text #1
ID : 4
Format : UTF-8
Codec ID : S_TEXT/UTF8
Codec ID/Info : UTF-8 Plain Text
Duration : 1 h 41 min
Bit rate : 53 b/s
Count of elements : 1311
Stream size : 39.5 KiB (0%)
Title : Español Latino [SRT]
Language : Spanish
Default : No
Forced : No

Text #2
ID : 5
Format : PGS
Muxing mode : zlib
Codec ID : S_HDMV/PGS
Codec ID/Info : Picture based subtitle format used on BDs/HD-DVDs
Duration : 1 h 41 min
Bit rate : 32.3 kb/s
Count of elements : 2626
Stream size : 23.5 MiB (1%)
Title : Español Latino [PGS]
Language : Spanish
Default : Yes
Forced : No

Text #3
ID : 6
Format : PGS
Muxing mode : zlib
Codec ID : S_HDMV/PGS
Codec ID/Info : Picture based subtitle format used on BDs/HD-DVDs
Duration : 1 h 41 min
Bit rate : 30.9 kb/s
Count of elements : 2626
Stream size : 22.5 MiB (1%)
Title : Inglés [PGS]
Language : English
Default : No
Forced : No

Text #4
ID : 7
Format : PGS
Muxing mode : zlib
Codec ID : S_HDMV/PGS
Codec ID/Info : Picture based subtitle format used on BDs/HD-DVDs
Duration : 1 h 42 min
Bit rate : 44.6 kb/s
Count of elements : 3874
Stream size : 32.7 MiB (1%)
Title : Inglés SDH [PGS]
Language : English
Default : No
Forced : No

Menu
00:00:00.000 : en:Chapter 01
00:05:42.592 : en:Chapter 02
00:08:27.715 : en:Chapter 03
00:15:01.400 : en:Chapter 04
00:16:29.655 : en:Chapter 05
00:21:25.117 : en:Chapter 06
00:25:45.252 : en:Chapter 07
00:29:08.913 : en:Chapter 08
00:33:45.023 : en:Chapter 09
00:40:27.216 : en:Chapter 10
00:44:37.925 : en:Chapter 11
00:47:42.317 : en:Chapter 12
00:53:04.514 : en:Chapter 13
00:55:27.240 : en:Chapter 14
01:02:36.711 : en:Chapter 15
01:09:57.526 : en:Chapter 16
01:13:48.382 : en:Chapter 17
01:19:26.636 : en:Chapter 18
01:24:28.146 : en:Chapter 19
01:31:17.263 : en:Chapter 20
Format : Matroska
Format version : Version 2
File size : 21.2 GiB
Duration : 1 h 43 min
Overall bit rate mode : Variable
Overall bit rate : 29.4 Mb/s
Movie name : Frozen II (2019) - MiCineHD.com
Encoded date : UTC 2020-02-16 19:50:27
Writing application : MakeMKV v1.14.7 win(x64-release)
Writing library : libmakemkv v1.14.7 (1.3.5/1.4.7) win(x64-release)

Video
ID : 1
ID in the original source m : 4113 (0x1011)
Format : AVC
Format/Info : Advanced Video Codec
Format profile : High@L4.1
Format settings : CABAC / 4 Ref Frames
Format settings, CABAC : Yes
Format settings, Reference : 4 frames
Format settings, GOP : M=1, N=12
Codec ID : V_MPEG4/ISO/AVC
Duration : 1 h 43 min
Bit rate mode : Variable
Bit rate : 21.9 Mb/s
Maximum bit rate : 31.0 Mb/s
Width : 1 920 pixels
Height : 1 080 pixels
Display aspect ratio : 16:9
Frame rate mode : Constant
Frame rate : 23.976 (24000/1001) FPS
Color space : YUV
Chroma subsampling : 4:2:0
Bit depth : 8 bits
Scan type : Progressive
Bits/(Pixel*Frame) : 0.441
Stream size : 15.8 GiB (75%)
Title : MiCineHD.com
Language : English
Default : No
Forced : No
Original source medium : Blu-ray

Audio #1
ID : 2
ID in the original source m : 4355 (0x1103)
Format : AC-3
Format/Info : Audio Coding 3
Commercial name : Dolby Digital
Codec ID : A_AC3
Duration : 1 h 43 min
Bit rate mode : Constant
Bit rate : 640 kb/s
Channel(s) : 6 channels
Channel layout : L R C LFE Ls Rs
Sampling rate : 48.0 kHz
Frame rate : 31.250 FPS (1536 SPF)
Compression mode : Lossy
Stream size : 473 MiB (2%)
Title : Surround 5.1
Language : Spanish
Service kind : Complete Main
Default : Yes
Forced : No
Original source medium : Blu-ray

Audio #2
ID : 3
ID in the original source m : 4352 (0x1100)
Format : DTS XLL
Format/Info : Digital Theater Systems
Commercial name : DTS-HD Master Audio
Codec ID : A_DTS
Duration : 1 h 43 min
Bit rate mode : Variable
Bit rate : 5 229 kb/s
Channel(s) : 8 channels
Channel layout : C L R LFE Lb Rb Lss Rss
Sampling rate : 48.0 kHz
Frame rate : 93.750 FPS (512 SPF)
Bit depth : 24 bits
Compression mode : Lossless
Stream size : 3.77 GiB (18%)
Title : Surround 7.1
Language : English
Default : No
Forced : No
Original source medium : Blu-ray

Audio #3
ID : 4
ID in the original source m : 4352 (0x1100)
Format : DTS
Format/Info : Digital Theater Systems
Codec ID : A_DTS
Duration : 1 h 43 min
Bit rate mode : Constant
Bit rate : 1 509 kb/s
Channel(s) : 6 channels
Channel layout : C L R Ls Rs LFE
Sampling rate : 48.0 kHz
Frame rate : 93.750 FPS (512 SPF)
Bit depth : 24 bits
Compression mode : Lossy
Stream size : 1.09 GiB (5%)
Title : Surround 5.1
Language : English
Default : No
Forced : No
Original source medium : Blu-ray

Text #1
ID : 5
ID in the original source m : 4611 (0x1203)
Format : PGS
Codec ID : S_HDMV/PGS
Codec ID/Info : Picture based subtitle format used on BDs/HD-DVDs
Duration : 1 h 41 min
Bit rate : 32.3 kb/s
Count of elements : 2626
Stream size : 23.5 MiB (0%)
Language : Spanish
Default : Yes
Forced : No
Original source medium : Blu-ray

Text #2
ID : 7
ID in the original source m : 4608 (0x1200)
Format : PGS
Codec ID : S_HDMV/PGS
Codec ID/Info : Picture based subtitle format used on BDs/HD-DVDs
Duration : 1 h 42 min
Bit rate : 44.6 kb/s
Count of elements : 3874
Stream size : 32.7 MiB (0%)
Language : English
Default : No
Forced : No
Original source medium : Blu-ray

Text #3
ID : 9
ID in the original source m : 4609 (0x1201)
Format : PGS
Codec ID : S_HDMV/PGS
Codec ID/Info : Picture based subtitle format used on BDs/HD-DVDs
Duration : 1 h 41 min
Bit rate : 30.9 kb/s
Count of elements : 2626
Stream size : 22.5 MiB (0%)
Language : English
Default : No
Forced : No
Original source medium : Blu-ray

Menu
00:00:00.000 : en:Chapter 01
00:05:42.592 : en:Chapter 02
00:08:27.715 : en:Chapter 03
00:15:01.400 : en:Chapter 04
00:16:29.655 : en:Chapter 05
00:21:25.117 : en:Chapter 06
00:25:45.252 : en:Chapter 07
00:29:08.913 : en:Chapter 08
00:33:45.023 : en:Chapter 09
00:40:27.216 : en:Chapter 10
00:44:37.925 : en:Chapter 11
00:47:42.317 : en:Chapter 12
00:53:04.514 : en:Chapter 13
00:55:27.240 : en:Chapter 14
01:02:36.711 : en:Chapter 15
01:09:57.526 : en:Chapter 16
01:13:48.382 : en:Chapter 17
01:19:26.636 : en:Chapter 18
01:24:28.146 : en:Chapter 19
01:31:17.263 : en:Chapter 20

Reportar Error Visitas: 83