Links Vip MCHD

Contenido Exclusivo

Todo aporte con enlaces de GDrive que pida permiso para descargar, se perdió, debido a que Google baneó múltiples cuentas, por lo tanto esos archivos están inaccesibles para descargar

Todos los enlaces rar son intercambiables

Problemas de contraseña o archivo dañado? repara siguiendo esta guía

The Shining (1980) MediaInfo

Format : Matroska
Format version : Version 4 / Version 2
File size : 5.57 GiB
Duration : 2 h 23 min
Overall bit rate : 5 545 kb/s
Movie name : The Shinning (1980) MiCineHD
Encoded date : UTC 2018-04-10 09:12:13 / UTC 2018-04-09T12:22:57Z
Writing application : mkvmerge v22.0.0 ('At The End Of The World') 64-bit
Writing library : libebml v1.3.5 + libmatroska v1.4.8 / Lavf57.7.2

Video
ID : 1
Format : AVC
Format/Info : Advanced Video Codec
Format profile : Main@L4.1
Format settings : CABAC / 4 Ref Frames
Format settings, CABAC : Yes
Format settings, ReFrames : 4 frames
Codec ID : V_MPEG4/ISO/AVC
Duration : 2 h 23 min
Bit rate : 4 300 kb/s
Width : 1 920 pixels
Height : 1 080 pixels
Display aspect ratio : 16:9
Frame rate mode : Constant
Frame rate : 23.976 (24000/1001) FPS
Color space : YUV
Chroma subsampling : 4:2:0
Bit depth : 8 bits
Scan type : Progressive
Bits/(Pixel*Frame) : 0.086
Stream size : 4.17 GiB (75%)
Title : The Shinning (1980) MiCineHD
Writing library : x264 core 148 r2708 86b7198
Encoding settings : cabac=1 / ref=4 / deblock=1:-1:-1 / analyse=0x1:0x131 / me=tesa / subme=11 / psy=1 / psy_rd=1.00:0.15 / mixed_ref=1 / me_range=24 / chroma_me=1 / trellis=2 / 8x8dct=0 / cqm=0 / deadzone=21,11 / fast_pskip=0 / chroma_qp_offset=-3 / threads=7 / lookahead_threads=1 / sliced_threads=0 / nr=0 / decimate=1 / interlaced=0 / bluray_compat=0 / constrained_intra=0 / bframes=16 / b_pyramid=2 / b_adapt=2 / b_bias=0 / direct=3 / weightb=1 / open_gop=0 / weightp=2 / keyint=240 / keyint_min=24 / scenecut=40 / intra_refresh=0 / rc_lookahead=60 / rc=abr / mbtree=1 / bitrate=4300 / ratetol=1.0 / qcomp=0.60 / qpmin=0 / qpmax=69 / qpstep=4 / vbv_maxrate=50000 / vbv_bufsize=62500 / nal_hrd=none / filler=0 / ip_ratio=1.40 / aq=1:1.00
Default : Yes
Forced : No
Color range : Limited
Color primaries : BT.709
Transfer characteristics : BT.709
Matrix coefficients : BT.709
Statistics Tags Issue : mkvmerge v22.0.0 ('At The End Of The World') 64-bit 2018-04-10 09:12:13 / mkvmerge v22.0.0 ('At The End Of The World') 64-bit 2018-04-10 09:12:13 / UTC 2018-04-09T12:22:57Z
FromStats_BitRate : 4243948
FromStats_Duration : 02:23:44.950000000
FromStats_FrameCount : 206792
FromStats_StreamSize : 4575480519

Audio #1
ID : 2
Format : AC-3
Format/Info : Audio Coding 3
Codec ID : A_AC3
Duration : 2 h 23 min
Bit rate mode : Constant
Bit rate : 640 kb/s
Channel(s) : 6 channels
Channel positions : Front: L C R, Side: L R, LFE
Sampling rate : 48.0 kHz
Frame rate : 31.250 FPS (1536 SPF)
Bit depth : 16 bits
Compression mode : Lossy
Stream size : 658 MiB (12%)
Title : Latino
Language : Spanish
Service kind : Complete Main
Default : Yes
Forced : No
Statistics Tags Issue : mkvmerge v22.0.0 ('At The End Of The World') 64-bit 2018-04-10 09:12:13 / mkvmerge v22.0.0 ('At The End Of The World') 64-bit 2018-04-10 09:12:13 / UTC 2018-04-09T12:22:57Z
FromStats_BitRate : 640000
FromStats_Duration : 02:23:46.176000000
FromStats_FrameCount : 269568
FromStats_StreamSize : 690094080

Audio #2
ID : 3
Format : AC-3
Format/Info : Audio Coding 3
Codec ID : A_AC3
Duration : 2 h 23 min
Bit rate mode : Constant
Bit rate : 640 kb/s
Channel(s) : 6 channels
Channel positions : Front: L C R, Side: L R, LFE
Sampling rate : 48.0 kHz
Frame rate : 31.250 FPS (1536 SPF)
Bit depth : 16 bits
Compression mode : Lossy
Stream size : 658 MiB (12%)
Title : Ingles
Language : English
Service kind : Complete Main
Default : No
Forced : No
Statistics Tags Issue : mkvmerge v22.0.0 ('At The End Of The World') 64-bit 2018-04-10 09:12:13 / mkvmerge v22.0.0 ('At The End Of The World') 64-bit 2018-04-10 09:12:13 / UTC 2018-04-09T12:22:57Z
FromStats_BitRate : 640000
FromStats_Duration : 02:23:46.144000000
FromStats_FrameCount : 269567
FromStats_StreamSize : 690091520

Text #1
ID : 4
Format : UTF-8
Codec ID : S_TEXT/UTF8
Codec ID/Info : UTF-8 Plain Text
Title : Latino
Language : Spanish
Default : Yes
Forced : No
Statistics Tags Issue : mkvmerge v22.0.0 ('At The End Of The World') 64-bit 2018-04-10 09:12:13 / mkvmerge v22.0.0 ('At The End Of The World') 64-bit 2018-04-10 09:12:13 / UTC 2018-04-09T12:22:57Z
FromStats_BitRate : 33
FromStats_Duration : 02:20:44.094000000
FromStats_FrameCount : 1300
FromStats_StreamSize : 35416

Text #2
ID : 5
Format : PGS
Muxing mode : zlib
Codec ID : S_HDMV/PGS
Codec ID/Info : Picture based subtitle format used on BDs/HD-DVDs
Title : Latino PGS
Language : Spanish
Default : No
Forced : No
Statistics Tags Issue : mkvmerge v22.0.0 ('At The End Of The World') 64-bit 2018-04-10 09:12:13 / mkvmerge v22.0.0 ('At The End Of The World') 64-bit 2018-04-10 09:12:13 / UTC 2018-04-09T12:22:57Z
FromStats_BitRate : 19439
FromStats_Duration : 02:20:44.095000000
FromStats_FrameCount : 2630
FromStats_StreamSize : 20518557

Text #3
ID : 6
Format : PGS
Muxing mode : zlib
Codec ID : S_HDMV/PGS
Codec ID/Info : Picture based subtitle format used on BDs/HD-DVDs
Title : Ingles PGS
Language : English
Default : No
Forced : No
Statistics Tags Issue : mkvmerge v22.0.0 ('At The End Of The World') 64-bit 2018-04-10 09:12:13 / mkvmerge v22.0.0 ('At The End Of The World') 64-bit 2018-04-10 09:12:13 / UTC 2018-04-09T12:22:57Z
FromStats_BitRate : 24482
FromStats_Duration : 02:20:32.625000000
FromStats_FrameCount : 3045
FromStats_StreamSize : 25806610

Menu
00:00:00.000 : :Chapter 1
00:03:01.223 : :Chapter 2
00:05:05.347 : :Chapter 3
00:10:34.676 : :Chapter 4
00:12:07.769 : :Chapter 5
00:14:24.906 : :Chapter 6
00:17:38.057 : :Chapter 7
00:20:31.230 : :Chapter 8
00:24:59.540 : :Chapter 9
00:28:51.730 : :Chapter 10
00:34:11.091 : :Chapter 11
00:40:29.427 : :Chapter 12
00:46:01.801 : :Chapter 13
00:46:52.852 : :Chapter 14
00:49:17.955 : :Chapter 15
00:51:17.074 : :Chapter 16
00:57:02.461 : :Chapter 17
00:58:37.514 : :Chapter 18
01:02:37.754 : :Chapter 19
01:06:06.004 : :Chapter 20
01:09:01.137 : :Chapter 21
01:16:52.650 : :Chapter 22
01:22:18.934 : :Chapter 23
01:25:30.167 : :Chapter 24
01:31:41.496 : :Chapter 25
01:34:04.681 : :Chapter 26
01:35:48.785 : :Chapter 27
01:39:30.965 : :Chapter 28
01:43:50.224 : :Chapter 29
01:49:26.602 : :Chapter 30
01:54:24.858 : :Chapter 31
01:58:45.160 : :Chapter 32
02:01:10.263 : :Chapter 33
02:05:30.565 : :Chapter 34
02:07:33.688 : :Chapter 35
02:10:23.816 : :Chapter 36
02:12:10.923 : :Chapter 37
02:15:04.096 : :Chapter 38
02:18:57.371 : :Chapter 39
02:21:18.470 : :Chapter 40

Reportar Error Visitas: 88