Links Vip MCHD

Contenido Exclusivo

Todo aporte con enlaces de GDrive que pida permiso para descargar, se perdió, debido a que Google baneó múltiples cuentas, por lo tanto esos archivos están inaccesibles para descargar

Todos los enlaces rar son intercambiables

Problemas de contraseña o archivo dañado? repara siguiendo esta guía

Terminator: Destino Oscuro (2019)

Format : Matroska
Format version : Version 4
File size : 4.66 GiB
Duration : 2 h 8 min
Overall bit rate : 5 179 kb/s
Movie name : Terminator: Dark Fate (2019) - MiCineHD.com
Encoded date : UTC 2020-01-14 08:01:57
Writing application : mkvmerge v42.0.0 ('Overtime') 64-bit
Writing library : libebml v1.3.10 + libmatroska v1.5.2

Video
ID : 1
Format : AVC
Format/Info : Advanced Video Codec
Format profile : High@L4
Format settings : CABAC / 5 Ref Frames
Format settings, CABAC : Yes
Format settings, Reference : 5 frames
Codec ID : V_MPEG4/ISO/AVC
Duration : 2 h 8 min
Bit rate : 4 540 kb/s
Width : 1 916 pixels
Height : 800 pixels
Display aspect ratio : 2.40:1
Frame rate mode : Constant
Frame rate : 23.976 FPS
Color space : YUV
Chroma subsampling : 4:2:0
Bit depth : 8 bits
Scan type : Progressive
Bits/(Pixel*Frame) : 0.124
Stream size : 4.08 GiB (88%)
Title : MiCineHD.com
Language : English
Default : Yes
Forced : No
Color range : Limited
Color primaries : BT.709
Transfer characteristics : BT.709
Matrix coefficients : BT.709

Audio #1
ID : 2
Format : AC-3
Format/Info : Audio Coding 3
Commercial name : Dolby Digital
Codec ID : A_AC3
Duration : 2 h 8 min
Bit rate mode : Constant
Bit rate : 256 kb/s
Channel(s) : 2 channels
Channel layout : L R
Sampling rate : 48.0 kHz
Frame rate : 31.250 FPS (1536 SPF)
Compression mode : Lossy
Delay relative to video : -43 ms
Stream size : 235 MiB (5%)
Title : Español Latino (AC3 2.0)
Language : Spanish
Service kind : Complete Main
Default : Yes
Forced : No

Audio #2
ID : 3
Format : AC-3
Format/Info : Audio Coding 3
Commercial name : Dolby Digital
Codec ID : A_AC3
Duration : 2 h 8 min
Bit rate mode : Constant
Bit rate : 384 kb/s
Channel(s) : 6 channels
Channel layout : L R C LFE Ls Rs
Sampling rate : 48.0 kHz
Frame rate : 31.250 FPS (1536 SPF)
Compression mode : Lossy
Delay relative to video : -43 ms
Stream size : 352 MiB (7%)
Title : Inglés (AC3 5.1)
Language : English
Service kind : Complete Main
Default : No
Forced : No

Text #1
ID : 4
Format : UTF-8
Codec ID : S_TEXT/UTF8
Codec ID/Info : UTF-8 Plain Text
Duration : 2 h 4 min
Bit rate : 0 b/s
Count of elements : 13
Stream size : 393 Bytes (0%)
Title : Forzados [SRT]
Language : Spanish
Default : Yes
Forced : Yes

Text #2
ID : 5
Format : UTF-8
Codec ID : S_TEXT/UTF8
Codec ID/Info : UTF-8 Plain Text
Duration : 2 h 7 min
Bit rate : 29 b/s
Count of elements : 1075
Stream size : 27.3 KiB (0%)
Title : Completos [SRT]
Language : Spanish
Default : No
Forced : No

Text #3
ID : 6
Format : UTF-8
Codec ID : S_TEXT/UTF8
Codec ID/Info : UTF-8 Plain Text
Duration : 1 h 47 min
Bit rate : 2 b/s
Count of elements : 122
Stream size : 2.36 KiB (0%)
Title : Forced [SRT]
Language : English
Default : No
Forced : Yes

Text #4
ID : 7
Format : UTF-8
Codec ID : S_TEXT/UTF8
Codec ID/Info : UTF-8 Plain Text
Duration : 1 h 57 min
Bit rate : 31 b/s
Count of elements : 1121
Stream size : 27.4 KiB (0%)
Title : Inglés [SRT]
Language : English
Default : No
Forced : No

Menu
00:00:00.000 : en:Chapter 1
00:04:19.843 : en:Chapter 2
00:07:48.927 : en:Chapter 3
00:11:47.914 : en:Chapter 4
00:16:56.347 : en:Chapter 5
00:22:10.661 : en:Chapter 6
00:29:00.612 : en:Chapter 7
00:33:25.752 : en:Chapter 8
00:41:35.491 : en:Chapter 9
00:47:02.693 : en:Chapter 10
00:53:08.934 : en:Chapter 11
00:57:56.805 : en:Chapter 12
01:05:02.689 : en:Chapter 13
01:13:07.964 : en:Chapter 14
01:20:45.587 : en:Chapter 15
01:27:29.741 : en:Chapter 16
01:32:48.684 : en:Chapter 17
01:41:45.846 : en:Chapter 18
01:49:35.315 : en:Chapter 19
01:57:58.608 : en:Chapter 20
Format : Matroska
Format version : Version 4
File size : 5.50 GiB
Duration : 2 h 8 min
Overall bit rate : 6 146 kb/s
Movie name : Terminator: Dark Fate (2019) - MiCineHD.com
Encoded date : UTC 2020-01-19 21:19:14
Writing application : mkvmerge v42.0.0 ('Overtime') 64-bit
Writing library : libebml v1.3.10 + libmatroska v1.5.2
Aporte exclusivo para : MiCineHD.com
Encoder : CharlX

Video
ID : 1
Format : AVC
Format/Info : Advanced Video Codec
Format profile : High@L4.1
Format settings : CABAC / 4 Ref Frames
Format settings, CABAC : Yes
Format settings, Reference : 4 frames
Codec ID : V_MPEG4/ISO/AVC
Duration : 2 h 8 min
Bit rate : 4 843 kb/s
Width : 1 920 pixels
Height : 1 080 pixels
Display aspect ratio : 16:9
Frame rate mode : Constant
Frame rate : 23.976 (24000/1001) FPS
Color space : YUV
Chroma subsampling : 4:2:0
Bit depth : 8 bits
Scan type : Progressive
Bits/(Pixel*Frame) : 0.097
Stream size : 4.33 GiB (79%)
Title : MiCineHD.com
Writing library : x264 core 157 r2935 545de2f
Encoding settings : cabac=1 / ref=4 / deblock=1:0:0 / analyse=0x3:0x133 / me=umh / subme=10 / psy=1 / psy_rd=1.00:0.00 / mixed_ref=1 / me_range=24 / chroma_me=1 / trellis=2 / 8x8dct=1 / cqm=0 / deadzone=21,11 / fast_pskip=1 / chroma_qp_offset=-2 / threads=12 / lookahead_threads=2 / sliced_threads=0 / nr=0 / decimate=1 / interlaced=0 / bluray_compat=0 / constrained_intra=0 / bframes=8 / b_pyramid=2 / b_adapt=2 / b_bias=0 / direct=3 / weightb=1 / open_gop=0 / weightp=2 / keyint=240 / keyint_min=24 / scenecut=40 / intra_refresh=0 / rc_lookahead=60 / rc=crf / mbtree=1 / crf=20.0 / qcomp=0.60 / qpmin=0 / qpmax=69 / qpstep=4 / vbv_maxrate=62500 / vbv_bufsize=78125 / crf_max=0.0 / nal_hrd=none / filler=0 / ip_ratio=1.40 / aq=1:1.00
Language : English
Default : Yes
Forced : No
Color range : Limited
Color primaries : BT.709
Transfer characteristics : BT.709
Matrix coefficients : BT.709

Audio #1
ID : 2
Format : AC-3
Format/Info : Audio Coding 3
Commercial name : Dolby Digital
Codec ID : A_AC3
Duration : 2 h 8 min
Bit rate mode : Constant
Bit rate : 640 kb/s
Channel(s) : 6 channels
Channel layout : L R C LFE Ls Rs
Sampling rate : 48.0 kHz
Frame rate : 31.250 FPS (1536 SPF)
Compression mode : Lossy
Stream size : 586 MiB (10%)
Title : Español Latino [AC3 5.1]
Language : Spanish
Service kind : Complete Main
Default : Yes
Forced : No

Audio #2
ID : 3
Format : AC-3
Format/Info : Audio Coding 3
Commercial name : Dolby Digital
Codec ID : A_AC3
Duration : 2 h 8 min
Bit rate mode : Constant
Bit rate : 640 kb/s
Channel(s) : 6 channels
Channel layout : L R C LFE Ls Rs
Sampling rate : 48.0 kHz
Frame rate : 31.250 FPS (1536 SPF)
Compression mode : Lossy
Stream size : 586 MiB (10%)
Title : Inglés [AC3 Core 5.1]
Language : English
Service kind : Complete Main
Default : No
Forced : No

Text #1
ID : 4
Format : UTF-8
Codec ID : S_TEXT/UTF8
Codec ID/Info : UTF-8 Plain Text
Duration : 2 h 5 min
Bit rate : 0 b/s
Count of elements : 14
Stream size : 371 Bytes (0%)
Title : Forzados [SRT]
Language : Spanish
Default : No
Forced : Yes

Text #2
ID : 5
Format : UTF-8
Codec ID : S_TEXT/UTF8
Codec ID/Info : UTF-8 Plain Text
Duration : 2 h 7 min
Bit rate : 28 b/s
Count of elements : 1075
Stream size : 26.7 KiB (0%)
Title : Completos [SRT]
Language : Spanish
Default : No
Forced : No

Text #3
ID : 6
Format : PGS
Muxing mode : zlib
Codec ID : S_HDMV/PGS
Codec ID/Info : Picture based subtitle format used on BDs/HD-DVDs
Duration : 2 h 5 min
Bit rate : 316 b/s
Count of elements : 28
Stream size : 290 KiB (0%)
Title : Forzados [PGS]
Language : Spanish
Default : Yes
Forced : Yes

Text #4
ID : 7
Format : PGS
Muxing mode : zlib
Codec ID : S_HDMV/PGS
Codec ID/Info : Picture based subtitle format used on BDs/HD-DVDs
Duration : 2 h 7 min
Bit rate : 18.3 kb/s
Count of elements : 2150
Stream size : 16.7 MiB (0%)
Title : Completos [PGS]
Language : Spanish
Default : No
Forced : No

Text #5
ID : 8
Format : PGS
Muxing mode : zlib
Codec ID : S_HDMV/PGS
Codec ID/Info : Picture based subtitle format used on BDs/HD-DVDs
Duration : 1 h 57 min
Bit rate : 20.1 kb/s
Count of elements : 2100
Stream size : 16.9 MiB (0%)
Title : Inglés [PGS]
Language : English
Default : No
Forced : No

Text #6
ID : 9
Format : PGS
Muxing mode : zlib
Codec ID : S_HDMV/PGS
Codec ID/Info : Picture based subtitle format used on BDs/HD-DVDs
Duration : 1 h 57 min
Bit rate : 27.3 kb/s
Count of elements : 2778
Stream size : 22.9 MiB (0%)
Title : Inglés SDH [PGS]
Language : English
Default : No
Forced : No

Menu
00:00:00.000 : en:Chapter 01
00:04:19.842 : en:Chapter 02
00:07:48.926 : en:Chapter 03
00:11:47.915 : en:Chapter 04
00:16:56.348 : en:Chapter 05
00:22:10.662 : en:Chapter 06
00:29:00.613 : en:Chapter 07
00:33:25.753 : en:Chapter 08
00:41:35.493 : en:Chapter 09
00:47:02.694 : en:Chapter 10
00:53:08.935 : en:Chapter 11
00:57:56.806 : en:Chapter 12
01:05:02.690 : en:Chapter 13
01:13:07.966 : en:Chapter 14
01:20:46.258 : en:Chapter 15
01:27:29.744 : en:Chapter 16
01:32:48.688 : en:Chapter 17
01:41:45.557 : en:Chapter 18
01:49:35.318 : en:Chapter 19
01:57:58.488 : en:Chapter 20
Format : Matroska
Format version : Version 4
File size : 7.31 GiB
Duration : 2 h 8 min
Overall bit rate : 8 166 kb/s
Movie name : Terminator: Dark Fate (2019) - MiCineHD.com
Encoded date : UTC 2020-01-20 21:50:57
Writing application : mkvmerge v42.0.0 ('Overtime') 64-bit
Writing library : libebml v1.3.10 + libmatroska v1.5.2
Aporte exclusivo para : MiCineHD.com
Encoder : CharlX

Video
ID : 1
Format : AVC
Format/Info : Advanced Video Codec
Format profile : High@L4.1
Format settings : CABAC / 4 Ref Frames
Format settings, CABAC : Yes
Format settings, Reference : 4 frames
Codec ID : V_MPEG4/ISO/AVC
Duration : 2 h 8 min
Bit rate : 6 864 kb/s
Width : 1 920 pixels
Height : 1 080 pixels
Display aspect ratio : 16:9
Frame rate mode : Constant
Frame rate : 23.976 (24000/1001) FPS
Color space : YUV
Chroma subsampling : 4:2:0
Bit depth : 8 bits
Scan type : Progressive
Bits/(Pixel*Frame) : 0.138
Stream size : 6.14 GiB (84%)
Title : MiCineHD.com
Writing library : x264 core 157 r2935 545de2f
Encoding settings : cabac=1 / ref=4 / deblock=1:0:0 / analyse=0x3:0x133 / me=tesa / subme=11 / psy=1 / psy_rd=1.00:0.00 / mixed_ref=1 / me_range=24 / chroma_me=1 / trellis=2 / 8x8dct=1 / cqm=0 / deadzone=21,11 / fast_pskip=0 / chroma_qp_offset=-2 / threads=34 / lookahead_threads=8 / sliced_threads=0 / nr=0 / decimate=1 / interlaced=0 / bluray_compat=0 / constrained_intra=0 / bframes=16 / b_pyramid=2 / b_adapt=2 / b_bias=0 / direct=3 / weightb=1 / open_gop=0 / weightp=2 / keyint=240 / keyint_min=24 / scenecut=40 / intra_refresh=0 / rc_lookahead=60 / rc=crf / mbtree=1 / crf=19.0 / qcomp=0.60 / qpmin=0 / qpmax=69 / qpstep=4 / vbv_maxrate=62500 / vbv_bufsize=78125 / crf_max=0.0 / nal_hrd=none / filler=0 / ip_ratio=1.40 / aq=1:1.00
Language : English
Default : Yes
Forced : No
Color range : Limited
Color primaries : BT.709
Transfer characteristics : BT.709
Matrix coefficients : BT.709

Audio #1
ID : 2
Format : AC-3
Format/Info : Audio Coding 3
Commercial name : Dolby Digital
Codec ID : A_AC3
Duration : 2 h 8 min
Bit rate mode : Constant
Bit rate : 640 kb/s
Channel(s) : 6 channels
Channel layout : L R C LFE Ls Rs
Sampling rate : 48.0 kHz
Frame rate : 31.250 FPS (1536 SPF)
Compression mode : Lossy
Stream size : 586 MiB (8%)
Title : Español Latino [AC3 5.1]
Language : Spanish
Service kind : Complete Main
Default : Yes
Forced : No

Audio #2
ID : 3
Format : AC-3
Format/Info : Audio Coding 3
Commercial name : Dolby Digital
Codec ID : A_AC3
Duration : 2 h 8 min
Bit rate mode : Constant
Bit rate : 640 kb/s
Channel(s) : 6 channels
Channel layout : L R C LFE Ls Rs
Sampling rate : 48.0 kHz
Frame rate : 31.250 FPS (1536 SPF)
Compression mode : Lossy
Stream size : 586 MiB (8%)
Title : Inglés [AC3 Core 5.1]
Language : English
Service kind : Complete Main
Default : No
Forced : No

Text #1
ID : 4
Format : UTF-8
Codec ID : S_TEXT/UTF8
Codec ID/Info : UTF-8 Plain Text
Duration : 2 h 5 min
Bit rate : 0 b/s
Count of elements : 14
Stream size : 371 Bytes (0%)
Title : Forzados [SRT]
Language : Spanish
Default : No
Forced : Yes

Text #2
ID : 5
Format : UTF-8
Codec ID : S_TEXT/UTF8
Codec ID/Info : UTF-8 Plain Text
Duration : 2 h 7 min
Bit rate : 28 b/s
Count of elements : 1075
Stream size : 26.7 KiB (0%)
Title : Completos [SRT]
Language : Spanish
Default : No
Forced : No

Text #3
ID : 6
Format : PGS
Muxing mode : zlib
Codec ID : S_HDMV/PGS
Codec ID/Info : Picture based subtitle format used on BDs/HD-DVDs
Duration : 2 h 5 min
Bit rate : 316 b/s
Count of elements : 28
Stream size : 290 KiB (0%)
Title : Forzados [PGS]
Language : Spanish
Default : Yes
Forced : Yes

Text #4
ID : 7
Format : PGS
Muxing mode : zlib
Codec ID : S_HDMV/PGS
Codec ID/Info : Picture based subtitle format used on BDs/HD-DVDs
Duration : 2 h 7 min
Bit rate : 18.3 kb/s
Count of elements : 2150
Stream size : 16.7 MiB (0%)
Title : Completos [PGS]
Language : Spanish
Default : No
Forced : No

Text #5
ID : 8
Format : PGS
Muxing mode : zlib
Codec ID : S_HDMV/PGS
Codec ID/Info : Picture based subtitle format used on BDs/HD-DVDs
Duration : 1 h 57 min
Bit rate : 20.1 kb/s
Count of elements : 2100
Stream size : 16.9 MiB (0%)
Title : Inglés [PGS]
Language : English
Default : No
Forced : No

Text #6
ID : 9
Format : PGS
Muxing mode : zlib
Codec ID : S_HDMV/PGS
Codec ID/Info : Picture based subtitle format used on BDs/HD-DVDs
Duration : 1 h 57 min
Bit rate : 27.3 kb/s
Count of elements : 2778
Stream size : 22.9 MiB (0%)
Title : Inglés SDH [PGS]
Language : English
Default : No
Forced : No

Menu
00:00:00.000 : en:Chapter 01
00:04:19.842 : en:Chapter 02
00:07:48.926 : en:Chapter 03
00:11:47.915 : en:Chapter 04
00:16:56.348 : en:Chapter 05
00:22:10.662 : en:Chapter 06
00:29:00.613 : en:Chapter 07
00:33:25.753 : en:Chapter 08
00:41:35.493 : en:Chapter 09
00:47:02.694 : en:Chapter 10
00:53:08.935 : en:Chapter 11
00:57:56.806 : en:Chapter 12
01:05:02.690 : en:Chapter 13
01:13:07.966 : en:Chapter 14
01:20:46.258 : en:Chapter 15
01:27:29.744 : en:Chapter 16
01:32:48.688 : en:Chapter 17
01:41:45.557 : en:Chapter 18
01:49:35.318 : en:Chapter 19
01:57:58.488 : en:Chapter 20
Format : Matroska
Format version : Version 2
File size : 31.1 GiB
Duration : 2 h 8 min
Overall bit rate mode : Variable
Overall bit rate : 34.7 Mb/s
Movie name : Terminator: Dark Fate (2019) - MiCineHD.com
Encoded date : UTC 2020-01-17 21:42:33
Writing application : MakeMKV v1.14.7 win(x64-release)
Writing library : libmakemkv v1.14.7 (1.3.5/1.4.7) win(x64-release)

Video
ID : 1
ID in the original source m : 4113 (0x1011)
Format : AVC
Format/Info : Advanced Video Codec
Format profile : High@L4.1
Format settings : CABAC / 4 Ref Frames
Format settings, CABAC : Yes
Format settings, Reference : 4 frames
Codec ID : V_MPEG4/ISO/AVC
Duration : 2 h 8 min
Bit rate mode : Variable
Bit rate : 28.7 Mb/s
Maximum bit rate : 33.3 Mb/s
Width : 1 920 pixels
Height : 1 080 pixels
Display aspect ratio : 16:9
Frame rate mode : Constant
Frame rate : 23.976 (24000/1001) FPS
Color space : YUV
Chroma subsampling : 4:2:0
Bit depth : 8 bits
Scan type : Progressive
Bits/(Pixel*Frame) : 0.578
Stream size : 25.7 GiB (83%)
Title : MiCineHD.com
Language : English
Default : No
Forced : No
Original source medium : Blu-ray

Audio #1
ID : 2
ID in the original source m : 4354 (0x1102)
Format : AC-3
Format/Info : Audio Coding 3
Commercial name : Dolby Digital
Codec ID : A_AC3
Duration : 2 h 8 min
Bit rate mode : Constant
Bit rate : 640 kb/s
Channel(s) : 6 channels
Channel layout : L R C LFE Ls Rs
Sampling rate : 48.0 kHz
Frame rate : 31.250 FPS (1536 SPF)
Compression mode : Lossy
Stream size : 586 MiB (2%)
Title : Surround 5.1
Language : Spanish
Service kind : Complete Main
Default : Yes
Forced : No
Original source medium : Blu-ray

Audio #2
ID : 3
ID in the original source m : 4352 (0x1100)
Format : MLP FBA 16-ch
Format/Info : Meridian Lossless Packing FBA with 16-channel presentation
Commercial name : Dolby TrueHD with Dolby Atmos
Codec ID : A_TRUEHD
Duration : 2 h 8 min
Bit rate mode : Variable
Bit rate : 4 634 kb/s
Maximum bit rate : 8 247 kb/s
Channel(s) : 8 channels
Channel layout : L R C LFE Ls Rs Lb Rb
Sampling rate : 48.0 kHz
Frame rate : 1 200.000 FPS (40 SPF)
Bit depth : 24 bits
Compression mode : Lossless
Stream size : 4.15 GiB (13%)
Title : Surround 7.1
Language : English
Default : No
Forced : No
Original source medium : Blu-ray
Number of dynamic objects : 11
Bed channel count : 1 channel
Bed channel configuration : LFE

Audio #3
ID : 4
ID in the original source m : 4352 (0x1100)
Format : AC-3
Format/Info : Audio Coding 3
Commercial name : Dolby Digital
Codec ID : A_AC3
Duration : 2 h 8 min
Bit rate mode : Constant
Bit rate : 640 kb/s
Channel(s) : 6 channels
Channel layout : L R C LFE Ls Rs
Sampling rate : 48.0 kHz
Frame rate : 31.250 FPS (1536 SPF)
Compression mode : Lossy
Stream size : 586 MiB (2%)
Title : Surround 5.1
Language : English
Service kind : Complete Main
Default : No
Forced : No
Original source medium : Blu-ray

Text #1
ID : 5
ID in the original source m : 4610 (0x1202)
Format : PGS
Codec ID : S_HDMV/PGS
Codec ID/Info : Picture based subtitle format used on BDs/HD-DVDs
Duration : 2 h 7 min
Bit rate : 18.3 kb/s
Count of elements : 2150
Stream size : 16.7 MiB (0%)
Language : Spanish
Default : No
Forced : No
Original source medium : Blu-ray

Text #2
ID : 6
ID in the original source m : 4610 (0x1202)
Format : PGS
Codec ID : S_HDMV/PGS
Codec ID/Info : Picture based subtitle format used on BDs/HD-DVDs
Duration : 2 h 5 min
Bit rate : 316 b/s
Count of elements : 28
Stream size : 290 KiB (0%)
Language : Spanish
Default : Yes
Forced : Yes
Original source medium : Blu-ray

Text #3
ID : 7
ID in the original source m : 4608 (0x1200)
Format : PGS
Codec ID : S_HDMV/PGS
Codec ID/Info : Picture based subtitle format used on BDs/HD-DVDs
Duration : 1 h 57 min
Bit rate : 20.1 kb/s
Count of elements : 2100
Stream size : 16.9 MiB (0%)
Language : English
Default : No
Forced : No
Original source medium : Blu-ray

Text #4
ID : 8
ID in the original source m : 4609 (0x1201)
Format : PGS
Codec ID : S_HDMV/PGS
Codec ID/Info : Picture based subtitle format used on BDs/HD-DVDs
Duration : 1 h 57 min
Bit rate : 27.3 kb/s
Count of elements : 2778
Stream size : 22.9 MiB (0%)
Language : English
Default : No
Forced : No
Original source medium : Blu-ray

Menu
00:00:00.000 : en:Chapter 01
00:04:19.842 : en:Chapter 02
00:07:48.926 : en:Chapter 03
00:11:47.915 : en:Chapter 04
00:16:56.348 : en:Chapter 05
00:22:10.662 : en:Chapter 06
00:29:00.613 : en:Chapter 07
00:33:25.753 : en:Chapter 08
00:41:35.493 : en:Chapter 09
00:47:02.694 : en:Chapter 10
00:53:08.935 : en:Chapter 11
00:57:56.806 : en:Chapter 12
01:05:02.690 : en:Chapter 13
01:13:07.966 : en:Chapter 14
01:20:46.258 : en:Chapter 15
01:27:29.744 : en:Chapter 16
01:32:48.688 : en:Chapter 17
01:41:45.557 : en:Chapter 18
01:49:35.318 : en:Chapter 19
01:57:58.488 : en:Chapter 20
Format : Matroska
Format version : Version 4
File size : 30.1 GiB
Duration : 2 h 8 min
Overall bit rate : 33.6 Mb/s
Movie name : Terminator: Dark Fate (2019) - MiCineHD.com
Encoded date : UTC 2020-01-15 05:49:46
Writing application : mkvmerge v42.0.0 ('Overtime') 64-bit
Writing library : libebml v1.3.10 + libmatroska v1.5.2
Aporte exclusivo para : MiCineHD.com
Uploader : CharlX

Video
ID : 1
Format : AVC
Format/Info : Advanced Video Codec
Format profile : High@L5.1
Format settings : CABAC / 7 Ref Frames
Format settings, CABAC : Yes
Format settings, Reference : 7 frames
Codec ID : V_MPEG4/ISO/AVC
Duration : 2 h 8 min
Bit rate : 32.7 Mb/s
Width : 3 840 pixels
Height : 1 600 pixels
Display aspect ratio : 2.40:1
Frame rate mode : Constant
Frame rate : 23.976 (24000/1001) FPS
Color space : YUV
Chroma subsampling : 4:2:0
Bit depth : 8 bits
Scan type : Progressive
Bits/(Pixel*Frame) : 0.222
Stream size : 29.3 GiB (97%)
Title : MiCineHD.com
Writing library : x264 core 158 r2984 3759fcb
Encoding settings : cabac=1 / ref=7 / deblock=1:-3:-3 / analyse=0x3:0x133 / me=umh / subme=10 / psy=1 / psy_rd=1.00:0.00 / mixed_ref=1 / me_range=48 / chroma_me=1 / trellis=2 / 8x8dct=1 / cqm=0 / deadzone=21,11 / fast_pskip=0 / chroma_qp_offset=-2 / threads=24 / lookahead_threads=4 / sliced_threads=0 / nr=0 / decimate=0 / interlaced=0 / bluray_compat=0 / constrained_intra=0 / bframes=8 / b_pyramid=2 / b_adapt=2 / b_bias=0 / direct=3 / weightb=1 / open_gop=0 / weightp=2 / keyint=250 / keyint_min=23 / scenecut=40 / intra_refresh=0 / rc=crf / mbtree=0 / crf=20.0 / qcomp=0.60 / qpmin=0 / qpmax=69 / qpstep=4 / ip_ratio=1.30 / pb_ratio=1.20 / aq=3:0.80
Language : English
Default : Yes
Forced : No

Audio #1
ID : 2
Format : AC-3
Format/Info : Audio Coding 3
Commercial name : Dolby Digital
Codec ID : A_AC3
Duration : 2 h 8 min
Bit rate mode : Constant
Bit rate : 256 kb/s
Channel(s) : 2 channels
Channel layout : L R
Sampling rate : 48.0 kHz
Frame rate : 31.250 FPS (1536 SPF)
Compression mode : Lossy
Stream size : 235 MiB (1%)
Title : Español Latino (AC3 2.0)
Language : Spanish
Service kind : Complete Main
Default : Yes
Forced : No

Audio #2
ID : 3
Format : E-AC-3
Format/Info : Enhanced AC-3
Commercial name : Dolby Digital Plus
Codec ID : A_EAC3
Duration : 2 h 8 min
Bit rate mode : Constant
Bit rate : 640 kb/s
Channel(s) : 6 channels
Channel layout : L R C LFE Ls Rs
Sampling rate : 48.0 kHz
Frame rate : 31.250 FPS (1536 SPF)
Compression mode : Lossy
Stream size : 586 MiB (2%)
Title : Inglés (E-AC3 5.1 Amazon)
Language : English
Service kind : Complete Main
Default : No
Forced : No

Text #1
ID : 4
Format : UTF-8
Codec ID : S_TEXT/UTF8
Codec ID/Info : UTF-8 Plain Text
Duration : 2 h 4 min
Bit rate : 0 b/s
Count of elements : 13
Stream size : 393 Bytes (0%)
Title : Forzados [SRT]
Language : Spanish
Default : Yes
Forced : Yes

Text #2
ID : 5
Format : UTF-8
Codec ID : S_TEXT/UTF8
Codec ID/Info : UTF-8 Plain Text
Duration : 2 h 7 min
Bit rate : 29 b/s
Count of elements : 1075
Stream size : 27.3 KiB (0%)
Title : Completos [SRT]
Language : Spanish
Default : No
Forced : No

Text #3
ID : 6
Format : UTF-8
Codec ID : S_TEXT/UTF8
Codec ID/Info : UTF-8 Plain Text
Duration : 1 h 57 min
Bit rate : 32 b/s
Count of elements : 1121
Stream size : 27.9 KiB (0%)
Title : Inglés [SRT]
Language : English
Default : No
Forced : No

Text #4
ID : 7
Format : UTF-8
Codec ID : S_TEXT/UTF8
Codec ID/Info : UTF-8 Plain Text
Duration : 1 h 57 min
Bit rate : 39 b/s
Count of elements : 1430
Stream size : 33.6 KiB (0%)
Title : Inglés SDH [SRT]
Language : English
Default : No
Forced : No

Menu
00:00:00.000 : en:Chapter 1
00:04:19.843 : en:Chapter 2
00:07:48.927 : en:Chapter 3
00:11:47.914 : en:Chapter 4
00:16:56.347 : en:Chapter 5
00:22:10.661 : en:Chapter 6
00:29:00.612 : en:Chapter 7
00:33:25.752 : en:Chapter 8
00:41:35.491 : en:Chapter 9
00:47:02.693 : en:Chapter 10
00:53:08.934 : en:Chapter 11
00:57:56.805 : en:Chapter 12
01:05:02.689 : en:Chapter 13
01:13:07.964 : en:Chapter 14
01:20:45.587 : en:Chapter 15
01:27:29.741 : en:Chapter 16
01:32:48.684 : en:Chapter 17
01:41:45.846 : en:Chapter 18
01:49:35.315 : en:Chapter 19
01:57:58.608 : en:Chapter 20
Format : Matroska
Format version : Version 4
File size : 17.4 GiB
Duration : 2 h 8 min
Overall bit rate mode : Variable
Overall bit rate : 19.4 Mb/s
Movie name : Terminator: Dark Fate (2019) - MiCineHD.com
Encoded date : UTC 2020-01-21 00:03:03
Writing application : mkvmerge v42.0.0 ('Overtime') 64-bit
Writing library : libebml v1.3.10 + libmatroska v1.5.2
Aporte exclusivo para : MiCineHD.com
Uploader : CharlX

Video
ID : 1
Format : HEVC
Format/Info : High Efficiency Video Coding
Format profile : Main 10@L5.1@High
HDR format : SMPTE ST 2086, HDR10 compatible
Codec ID : V_MPEGH/ISO/HEVC
Duration : 2 h 8 min
Bit rate : 13.4 Mb/s
Width : 3 840 pixels
Height : 1 608 pixels
Display aspect ratio : 2.40:1
Frame rate mode : Constant
Frame rate : 23.976 (24000/1001) FPS
Color space : YUV
Chroma subsampling : 4:2:0 (Type 2)
Bit depth : 10 bits
Bits/(Pixel*Frame) : 0.091
Stream size : 12.0 GiB (69%)
Title : MiCineHD.com
Writing library : x265 3.2+23-52135ffd9bcd:[Windows][GCC 9.2.1][64 bit] 10bit
Encoding settings : cpuid=1176575 / frame-threads=5 / numa-pools=36 / wpp / no-pmode / no-pme / no-psnr / no-ssim / log-level=2 / input-csp=1 / input-res=3840x1608 / interlace=0 / total-frames=184264 / level-idc=51 / high-tier=1 / uhd-bd=0 / ref=4 / no-allow-non-conformance / repeat-headers / annexb / aud / hrd / info / hash=0 / no-temporal-layers / no-open-gop / min-keyint=1 / keyint=24 / gop-lookahead=0 / bframes=4 / b-adapt=2 / b-pyramid / bframe-bias=0 / rc-lookahead=25 / lookahead-slices=4 / scenecut=40 / hist-scenecut=0 / radl=0 / no-splice / no-intra-refresh / ctu=64 / min-cu-size=8 / rect / no-amp / max-tu-size=32 / tu-inter-depth=1 / tu-intra-depth=1 / limit-tu=0 / rdoq-level=2 / dynamic-rd=0.00 / no-ssim-rd / signhide / no-tskip / nr-intra=0 / nr-inter=0 / no-constrained-intra / no-strong-intra-smoothing / max-merge=3 / limit-refs=3 / limit-modes / me=3 / subme=3 / merange=57 / temporal-mvp / no-frame-dup / no-hme / weightp / no-weightb / no-analyze-src-pics / deblock=-3:-3 / no-sao / no-sao-non-deblock / rd=4 / selective-sao=0 / no-early-skip / rskip / no-fast-intra / no-tskip-fast / no-cu-lossless / no-b-intra / no-splitrd-skip / rdpenalty=0 / psy-rd=2.00 / psy-rdoq=1.00 / no-rd-refine / no-lossless / cbqpoffs=0 / crqpoffs=0 / rc=crf / crf=17.0 / qcomp=0.60 / qpstep=4 / stats-write=0 / stats-read=0 / vbv-maxrate=160000 / vbv-bufsize=160000 / vbv-init=0.9 / crf-max=0.0 / crf-min=0.0 / ipratio=1.40 / pbratio=1.30 / aq-mode=1 / aq-strength=1.00 / cutree / zone-count=0 / no-strict-cbr / qg-size=32 / no-rc-grain / qpmax=69 / qpmin=0 / no-const-vbv / sar=1 / overscan=0 / videoformat=5 / range=0 / colorprim=9 / transfer=16 / colormatrix=9 / chromaloc=1 / chromaloc-top=2 / chromaloc-bottom=2 / display-window=0 / master-display=G(13250,34500)B(7500,3000)R(34000,16000)WP(15635,16450)L(10000000,1) / cll=1000,446 / min-luma=0 / max-luma=1023 / log2-max-poc-lsb=8 / vui-timing-info / vui-hrd-info / slices=1 / no-opt-qp-pps / no-opt-ref-list-length-pps / no-multi-pass-opt-rps / scenecut-bias=0.05 / hist-threshold=0.01 / no-opt-cu-delta-qp / no-aq-motion / hdr / hdr-opt / no-dhdr10-opt / no-idr-recovery-sei / analysis-reuse-level=5 / scale-factor=0 / refine-intra=0 / refine-inter=0 / refine-mv=1 / refine-ctu-distortion=0 / no-limit-sao / ctu-info=0 / no-lowpass-dct / refine-analysis-type=0 / copy-pic=1 / max-ausize-factor=1.0 / no-dynamic-refine / no-single-sei / no-hevc-aq / no-svt / no-field / qp-adaptation-range=1.00 / no-scenecut-aware-qp
Language : English
Default : Yes
Forced : No
Color range : Limited
Color primaries : BT.2020
Transfer characteristics : PQ
Matrix coefficients : BT.2020 non-constant
Mastering display color pri : Display P3
Mastering display luminance : min: 0.0001 cd/m2, max: 1000 cd/m2
Maximum Content Light Level : 1000 cd/m2
Maximum Frame-Average Light : 446 cd/m2

Audio #1
ID : 2
Format : AC-3
Format/Info : Audio Coding 3
Commercial name : Dolby Digital
Codec ID : A_AC3
Duration : 2 h 8 min
Bit rate mode : Constant
Bit rate : 640 kb/s
Channel(s) : 6 channels
Channel layout : L R C LFE Ls Rs
Sampling rate : 48.0 kHz
Frame rate : 31.250 FPS (1536 SPF)
Compression mode : Lossy
Stream size : 586 MiB (3%)
Title : Español Latino [AC3 5.1]
Language : Spanish
Service kind : Complete Main
Default : Yes
Forced : No

Audio #2
ID : 3
Format : AC-3
Format/Info : Audio Coding 3
Commercial name : Dolby Digital
Codec ID : A_AC3
Duration : 2 h 8 min
Bit rate mode : Constant
Bit rate : 640 kb/s
Channel(s) : 6 channels
Channel layout : L R C LFE Ls Rs
Sampling rate : 48.0 kHz
Frame rate : 31.250 FPS (1536 SPF)
Compression mode : Lossy
Stream size : 586 MiB (3%)
Title : Inglés [AC3 Core 5.1]
Language : English
Service kind : Complete Main
Default : No
Forced : No

Audio #3
ID : 4
Format : MLP FBA 16-ch
Format/Info : Meridian Lossless Packing FBA with 16-channel presentation
Commercial name : Dolby TrueHD with Dolby Atmos
Codec ID : A_TRUEHD
Duration : 2 h 8 min
Bit rate mode : Variable
Bit rate : 4 634 kb/s
Maximum bit rate : 8 247 kb/s
Channel(s) : 8 channels
Channel layout : L R C LFE Ls Rs Lb Rb
Sampling rate : 48.0 kHz
Frame rate : 1 200.000 FPS (40 SPF)
Compression mode : Lossless
Delay relative to video : 9 ms
Stream size : 4.15 GiB (24%)
Title : Inglés [TrueHD 7.1 Atmos]
Language : English
Default : No
Forced : No
Number of dynamic objects : 11
Bed channel count : 1 channel
Bed channel configuration : LFE

Text #1
ID : 5
Format : UTF-8
Codec ID : S_TEXT/UTF8
Codec ID/Info : UTF-8 Plain Text
Duration : 2 h 5 min
Bit rate : 0 b/s
Count of elements : 14
Stream size : 379 Bytes (0%)
Title : Forzados [SRT]
Language : Spanish
Default : No
Forced : Yes

Text #2
ID : 6
Format : UTF-8
Codec ID : S_TEXT/UTF8
Codec ID/Info : UTF-8 Plain Text
Duration : 1 h 57 min
Bit rate : 31 b/s
Count of elements : 1073
Stream size : 27.2 KiB (0%)
Title : Completos [SRT]
Language : Spanish
Default : No
Forced : No

Text #3
ID : 7
Format : PGS
Muxing mode : zlib
Codec ID : S_HDMV/PGS
Codec ID/Info : Picture based subtitle format used on BDs/HD-DVDs
Duration : 2 h 5 min
Bit rate : 356 b/s
Count of elements : 28
Stream size : 327 KiB (0%)
Title : Forzados [PGS]
Default : Yes
Forced : Yes

Text #4
ID : 8
Format : PGS
Muxing mode : zlib
Codec ID : S_HDMV/PGS
Codec ID/Info : Picture based subtitle format used on BDs/HD-DVDs
Duration : 2 h 7 min
Bit rate : 18.3 kb/s
Count of elements : 2150
Stream size : 16.7 MiB (0%)
Title : Completos [PGS]
Language : Spanish
Default : No
Forced : No

Text #5
ID : 9
Format : PGS
Muxing mode : zlib
Codec ID : S_HDMV/PGS
Codec ID/Info : Picture based subtitle format used on BDs/HD-DVDs
Duration : 1 h 57 min
Bit rate : 20.1 kb/s
Count of elements : 2100
Stream size : 16.9 MiB (0%)
Title : Inglés [PGS]
Language : English
Default : No
Forced : No

Text #6
ID : 10
Format : PGS
Muxing mode : zlib
Codec ID : S_HDMV/PGS
Codec ID/Info : Picture based subtitle format used on BDs/HD-DVDs
Duration : 1 h 57 min
Bit rate : 27.3 kb/s
Count of elements : 2778
Stream size : 22.9 MiB (0%)
Title : Inglés SDH [PGS]
Language : English
Default : No
Forced : No

Menu
00:00:00.000 : en:Chapter 01
00:04:19.843 : en:Chapter 02
00:07:48.927 : en:Chapter 03
00:11:47.916 : en:Chapter 04
00:16:56.349 : en:Chapter 05
00:22:10.663 : en:Chapter 06
00:29:00.614 : en:Chapter 07
00:33:25.754 : en:Chapter 08
00:41:35.493 : en:Chapter 09
00:47:02.695 : en:Chapter 10
00:53:08.936 : en:Chapter 11
00:57:56.807 : en:Chapter 12
01:05:02.690 : en:Chapter 13
01:13:07.967 : en:Chapter 14
01:20:45.591 : en:Chapter 15
01:27:29.744 : en:Chapter 16
01:32:48.688 : en:Chapter 17
01:41:45.850 : en:Chapter 18
01:49:35.319 : en:Chapter 19
01:57:58.613 : en:Chapter 20

Reportar Error Visitas: 140