Links Vip MCHD

Contenido privado

Todo aporte con enlaces de GDrive que pida permiso para descargar, se perdió, debido a que Google baneó múltiples cuentas, por lo tanto esos archivos están inaccesibles para descargar

Todos los enlaces rar son intercambiables

Problemas de contraseña o archivo dañado? repara siguiendo esta guía

Maléfica: Maestra del Mal (2019)

Format : Matroska
Format version : Version 4
File size : 6.62 GiB
Duration : 1 h 58 min
Overall bit rate : 7 972 kb/s
Movie name : Maleficent: Mistress of Evil (2019) - MiCineHD.com
Encoded date : UTC 2019-12-31 20:35:35
Writing application : mkvmerge v40.0.0 ('Old Town Road + Pony') 64-bit
Writing library : libebml v1.3.9 + libmatroska v1.5.2
Aporte exclusivo para : MiCineHD.com
Uploader / Encoder : CharlX

Video
ID : 1
Format : AVC
Format/Info : Advanced Video Codec
Format profile : High@L4
Format settings : CABAC / 4 Ref Frames
Format settings, CABAC : Yes
Format settings, Reference : 4 frames
Codec ID : V_MPEG4/ISO/AVC
Duration : 1 h 58 min
Bit rate mode : Constant
Bit rate : 7 074 kb/s
Nominal bit rate : 10 000 kb/s
Width : 1 920 pixels
Height : 1 080 pixels
Display aspect ratio : 16:9
Frame rate mode : Constant
Frame rate : 23.976 (24000/1001) FPS
Color space : YUV
Chroma subsampling : 4:2:0
Bit depth : 8 bits
Scan type : Progressive
Bits/(Pixel*Frame) : 0.142
Stream size : 5.87 GiB (89%)
Title : MiCineHD.com
Language : English
Default : Yes
Forced : No
Color range : Limited
Color primaries : BT.709
Transfer characteristics : BT.709
Matrix coefficients : BT.709

Audio #1
ID : 2
Format : AC-3
Format/Info : Audio Coding 3
Commercial name : Dolby Digital
Codec ID : A_AC3
Duration : 1 h 58 min
Bit rate mode : Constant
Bit rate : 256 kb/s
Channel(s) : 2 channels
Channel layout : L R
Sampling rate : 48.0 kHz
Frame rate : 31.250 FPS (1536 SPF)
Compression mode : Lossy
Stream size : 218 MiB (3%)
Title : Español Latino (AC3 2.0 iTunes)
Language : Spanish
Service kind : Complete Main
Default : Yes
Forced : No

Audio #2
ID : 3
Format : E-AC-3
Format/Info : Enhanced AC-3
Commercial name : Dolby Digital Plus
Codec ID : A_EAC3
Duration : 1 h 58 min
Bit rate mode : Constant
Bit rate : 640 kb/s
Channel(s) : 6 channels
Channel layout : L R C LFE Ls Rs
Sampling rate : 48.0 kHz
Frame rate : 31.250 FPS (1536 SPF)
Compression mode : Lossy
Stream size : 544 MiB (8%)
Title : Inglés (E-AC3 5.1 Amazon)
Language : English
Service kind : Complete Main
Default : No
Forced : No

Text
ID : 4
Format : UTF-8
Codec ID : S_TEXT/UTF8
Codec ID/Info : UTF-8 Plain Text
Duration : 1 h 48 min
Bit rate : 33 b/s
Count of elements : 1011
Stream size : 26.8 KiB (0%)
Title : Español Latino [SRT]
Language : Spanish
Default : No
Forced : No
Format : Matroska
Format version : Version 4
File size : 5.62 GiB
Duration : 1 h 58 min
Overall bit rate : 6 768 kb/s
Movie name : Maleficent: Mistress of Evil (2019) - MiCineHD.com
Encoded date : UTC 2020-01-04 20:52:01
Writing application : mkvmerge v42.0.0 ('Overtime') 64-bit
Writing library : libebml v1.3.10 + libmatroska v1.5.2
Aporte exclusivo para : MiCineHD.com
Uploader / Encoder : CharlX

Video
ID : 1
Format : AVC
Format/Info : Advanced Video Codec
Format profile : High@L4.1
Format settings : CABAC / 4 Ref Frames
Format settings, CABAC : Yes
Format settings, Reference : 4 frames
Codec ID : V_MPEG4/ISO/AVC
Duration : 1 h 58 min
Bit rate : 4 600 kb/s
Width : 1 920 pixels
Height : 1 080 pixels
Display aspect ratio : 16:9
Frame rate mode : Constant
Frame rate : 23.976 (24000/1001) FPS
Color space : YUV
Chroma subsampling : 4:2:0
Bit depth : 8 bits
Scan type : Progressive
Bits/(Pixel*Frame) : 0.093
Stream size : 3.82 GiB (68%)
Title : MiCineHD.com
Writing library : x264 core 157 r2935 545de2f
Encoding settings : cabac=1 / ref=4 / deblock=1:0:0 / analyse=0x3:0x133 / me=umh / subme=10 / psy=1 / psy_rd=1.00:0.00 / mixed_ref=1 / me_range=24 / chroma_me=1 / trellis=2 / 8x8dct=1 / cqm=0 / deadzone=21,11 / fast_pskip=1 / chroma_qp_offset=-2 / threads=12 / lookahead_threads=2 / sliced_threads=0 / nr=0 / decimate=1 / interlaced=0 / bluray_compat=0 / constrained_intra=0 / bframes=8 / b_pyramid=2 / b_adapt=2 / b_bias=0 / direct=3 / weightb=1 / open_gop=0 / weightp=2 / keyint=240 / keyint_min=24 / scenecut=40 / intra_refresh=0 / rc_lookahead=60 / rc=crf / mbtree=1 / crf=19.0 / qcomp=0.60 / qpmin=0 / qpmax=69 / qpstep=4 / vbv_maxrate=62500 / vbv_bufsize=78125 / crf_max=0.0 / nal_hrd=none / filler=0 / ip_ratio=1.40 / aq=1:1.00
Language : English
Default : Yes
Forced : No
Color range : Limited
Color primaries : BT.709
Transfer characteristics : BT.709
Matrix coefficients : BT.709

Audio #1
ID : 2
Format : AC-3
Format/Info : Audio Coding 3
Commercial name : Dolby Digital
Codec ID : A_AC3
Duration : 1 h 58 min
Bit rate mode : Constant
Bit rate : 640 kb/s
Channel(s) : 6 channels
Channel layout : L R C LFE Ls Rs
Sampling rate : 48.0 kHz
Frame rate : 31.250 FPS (1536 SPF)
Compression mode : Lossy
Stream size : 544 MiB (9%)
Title : Español Latino (AC3 5.1)
Language : Spanish
Service kind : Complete Main
Default : Yes
Forced : No

Audio #2
ID : 3
Format : DTS
Format/Info : Digital Theater Systems
Codec ID : A_DTS
Duration : 1 h 58 min
Bit rate mode : Constant
Bit rate : 1 509 kb/s
Channel(s) : 6 channels
Channel layout : C L R Ls Rs LFE
Sampling rate : 48.0 kHz
Frame rate : 93.750 FPS (512 SPF)
Bit depth : 24 bits
Compression mode : Lossy
Stream size : 1.25 GiB (22%)
Title : Inglés (DTS Core 5.1)
Language : English
Default : No
Forced : No

Text #1
ID : 4
Format : UTF-8
Codec ID : S_TEXT/UTF8
Codec ID/Info : UTF-8 Plain Text
Duration : 7 s 7 ms
Bit rate : 28 b/s
Count of elements : 1
Stream size : 25.0 Bytes (0%)
Title : Forzados [SRT]
Language : Spanish
Default : No
Forced : Yes

Text #2
ID : 5
Format : UTF-8
Codec ID : S_TEXT/UTF8
Codec ID/Info : UTF-8 Plain Text
Duration : 1 h 49 min
Bit rate : 33 b/s
Count of elements : 1012
Stream size : 26.9 KiB (0%)
Title : Completos [SRT]
Language : Spanish
Default : No
Forced : No

Text #3
ID : 6
Format : PGS
Muxing mode : zlib
Codec ID : S_HDMV/PGS
Codec ID/Info : Picture based subtitle format used on BDs/HD-DVDs
Duration : 7 s 7 ms
Bit rate : 21.2 kb/s
Count of elements : 2
Stream size : 18.2 KiB (0%)
Title : Forzados [PGS]
Language : Spanish
Default : Yes
Forced : Yes

Text #4
ID : 7
Format : PGS
Muxing mode : zlib
Codec ID : S_HDMV/PGS
Codec ID/Info : Picture based subtitle format used on BDs/HD-DVDs
Duration : 1 h 48 min
Bit rate : 21.2 kb/s
Count of elements : 2022
Stream size : 16.5 MiB (0%)
Title : Completos [PGS]
Language : Spanish
Default : No
Forced : No

Text #5
ID : 8
Format : PGS
Muxing mode : zlib
Codec ID : S_HDMV/PGS
Codec ID/Info : Picture based subtitle format used on BDs/HD-DVDs
Duration : 1 h 53 min
Bit rate : 31.0 kb/s
Count of elements : 3210
Stream size : 25.1 MiB (0%)
Title : English (SDH) [PGS]
Language : English
Default : No
Forced : No

Menu
00:00:00.000 : en:Missing Faeries
00:06:47.907 : en:The Big Day
00:09:11.676 : en:"Don't Ruin My Morning"
00:14:45.551 : en:A Time To Celebrate
00:19:27.833 : en:An Evil Plan
00:23:10.556 : en:Dinner At The Castle
00:33:51.905 : en:Out Of The Sky
00:39:10.265 : en:Carried Away
00:42:19.579 : en:The Dark Fey
00:48:31.992 : en:Nest Of Origin
00:52:44.745 : en:Wedding Invitation
00:57:15.140 : en:A Different Person
00:59:26.146 : en:Underground Secrets
01:05:47.569 : en:The Wedding Day
01:09:31.751 : en:A Curse Revealed
01:19:07.242 : en:A War
01:22:48.547 : en:"Remember Who You Are"
01:29:09.219 : en:Maleficent Arrives
01:35:00.653 : en:Chaos Of War
01:44:26.510 : en:"Will You Give Me Away?"
01:51:06.994 : en:End Credits / "You Can't Stop The Girl"
Format : Matroska
Format version : Version 4
File size : 32.0 GiB
Duration : 1 h 58 min
Overall bit rate mode : Variable
Overall bit rate : 38.6 Mb/s
Movie name : Maleficent: Mistress of Evil (2019) - MiCineHD.com
Encoded date : UTC 2020-01-03 06:18:49
Writing application : mkvmerge v40.0.0 ('Old Town Road + Pony') 64-bit
Writing library : libebml v1.3.9 + libmatroska v1.5.2
Aporte exclusivo para : www.GDriveLatinoHD.site
Uploader / Encoder : CharlX

Video
ID : 1
Format : AVC
Format/Info : Advanced Video Codec
Format profile : High@L4.1
Format settings : CABAC / 4 Ref Frames
Format settings, CABAC : Yes
Format settings, Reference : 4 frames
Codec ID : V_MPEG4/ISO/AVC
Duration : 1 h 58 min
Bit rate mode : Variable
Bit rate : 32.6 Mb/s
Maximum bit rate : 35.0 Mb/s
Width : 1 920 pixels
Height : 1 080 pixels
Display aspect ratio : 16:9
Frame rate mode : Constant
Frame rate : 23.976 (24000/1001) FPS
Color space : YUV
Chroma subsampling : 4:2:0
Bit depth : 8 bits
Scan type : Progressive
Bits/(Pixel*Frame) : 0.657
Stream size : 27.1 GiB (85%)
Title : MiCineHD.com
Language : English
Default : Yes
Forced : No

Audio #1
ID : 2
Format : AC-3
Format/Info : Audio Coding 3
Commercial name : Dolby Digital
Codec ID : A_AC3
Duration : 1 h 58 min
Bit rate mode : Constant
Bit rate : 640 kb/s
Channel(s) : 6 channels
Channel layout : L R C LFE Ls Rs
Sampling rate : 48.0 kHz
Frame rate : 31.250 FPS (1536 SPF)
Compression mode : Lossy
Stream size : 544 MiB (2%)
Title : Español Latino (AC3 5.1)
Language : Spanish
Service kind : Complete Main
Default : Yes
Forced : No

Audio #2
ID : 3
Format : DTS XLL
Format/Info : Digital Theater Systems
Commercial name : DTS-HD Master Audio
Codec ID : A_DTS
Duration : 1 h 58 min
Bit rate mode : Variable
Bit rate : 5 249 kb/s
Channel(s) : 8 channels
Channel layout : C L R LFE Lb Rb Lss Rss
Sampling rate : 48.0 kHz
Frame rate : 93.750 FPS (512 SPF)
Bit depth : 24 bits
Compression mode : Lossless
Stream size : 4.36 GiB (14%)
Title : Inglés (DTS-HD MA 7.1)
Language : English
Default : No
Forced : No

Text #1
ID : 4
Format : PGS
Muxing mode : zlib
Codec ID : S_HDMV/PGS
Codec ID/Info : Picture based subtitle format used on BDs/HD-DVDs
Duration : 7 s 7 ms
Bit rate : 21.2 kb/s
Count of elements : 2
Stream size : 18.2 KiB (0%)
Title : Forzados [PGS]
Language : Spanish
Default : Yes
Forced : Yes

Text #2
ID : 5
Format : PGS
Muxing mode : zlib
Codec ID : S_HDMV/PGS
Codec ID/Info : Picture based subtitle format used on BDs/HD-DVDs
Duration : 1 h 48 min
Bit rate : 21.2 kb/s
Count of elements : 2022
Stream size : 16.5 MiB (0%)
Title : Completos [PGS]
Language : Spanish
Default : No
Forced : No

Text #3
ID : 6
Format : PGS
Muxing mode : zlib
Codec ID : S_HDMV/PGS
Codec ID/Info : Picture based subtitle format used on BDs/HD-DVDs
Duration : 1 h 53 min
Bit rate : 31.0 kb/s
Count of elements : 3210
Stream size : 25.1 MiB (0%)
Title : English (SDH) [PGS]
Language : English
Default : No
Forced : No

Menu
00:00:00.000 : en:Missing Faeries
00:06:47.907 : en:The Big Day
00:09:11.676 : en:"Don't Ruin My Morning"
00:14:45.551 : en:A Time To Celebrate
00:19:27.833 : en:An Evil Plan
00:23:10.556 : en:Dinner At The Castle
00:33:51.905 : en:Out Of The Sky
00:39:10.265 : en:Carried Away
00:42:19.579 : en:The Dark Fey
00:48:31.992 : en:Nest Of Origin
00:52:44.745 : en:Wedding Invitation
00:57:15.140 : en:A Different Person
00:59:26.146 : en:Underground Secrets
01:05:47.569 : en:The Wedding Day
01:09:31.751 : en:A Curse Revealed
01:19:07.242 : en:A War
01:22:48.547 : en:"Remember Who You Are"
01:29:09.219 : en:Maleficent Arrives
01:35:00.653 : en:Chaos Of War
01:44:26.510 : en:"Will You Give Me Away?"
01:51:06.994 : en:End Credits / "You Can't Stop The Girl"

Reportar Error Visitas: 137