Links Vip MCHD

Contenido Exclusivo

Todo aporte con enlaces de GDrive que pida permiso para descargar, se perdió, debido a que Google baneó múltiples cuentas, por lo tanto esos archivos están inaccesibles para descargar

Todos los enlaces rar son intercambiables

Problemas de contraseña o archivo dañado? repara siguiendo esta guía

Brave (2012) MediaInfo

Format : Matroska
Format version : Version 4
File size : 3.23 GiB
Duration : 1 h 34 min
Overall bit rate : 4 901 kb/s
Movie name : Brave (2012) MiCineHD.com
Encoded date : UTC 2019-11-01 06:54:20
Writing application : mkvmerge v37.0.0 ('Leave It') 32-bit
Writing library : libebml v1.3.9 + libmatroska v1.5.2
Encoder : Gencro
Web : Exclusivo para MiCineHD.com

Video
ID : 1
Format : AVC
Format/Info : Advanced Video Codec
Format profile : High@L4.1
Format settings : CABAC / 2 Ref Frames
Format settings, CABAC : Yes
Format settings, Reference : 2 frames
Codec ID : V_MPEG4/ISO/AVC
Duration : 1 h 34 min
Bit rate : 3 977 kb/s
Width : 1 920 pixels
Height : 1 080 pixels
Display aspect ratio : 16:9
Frame rate mode : Constant
Frame rate : 23.976 (24000/1001) FPS
Color space : YUV
Chroma subsampling : 4:2:0
Bit depth : 8 bits
Scan type : Progressive
Bits/(Pixel*Frame) : 0.080
Stream size : 2.62 GiB (81%)
Title : Brave (2012) MiCineHD.com
Writing library : x264 core
Default : Yes
Forced : No
Color range : Limited
Color primaries : BT.709
Transfer characteristics : BT.709
Matrix coefficients : BT.709

Audio #1
ID : 2
Format : AC-3
Format/Info : Audio Coding 3
Commercial name : Dolby Digital
Codec ID : A_AC3
Duration : 1 h 34 min
Bit rate mode : Constant
Bit rate : 448 kb/s
Channel(s) : 6 channels
Channel layout : L R C LFE Ls Rs
Sampling rate : 48.0 kHz
Frame rate : 31.250 FPS (1536 SPF)
Compression mode : Lossy
Stream size : 302 MiB (9%)
Title : Latino MiCineHD.com
Language : Spanish
Service kind : Complete Main
Default : Yes
Forced : No

Audio #2
ID : 3
Format : AC-3
Format/Info : Audio Coding 3
Commercial name : Dolby Digital
Codec ID : A_AC3
Duration : 1 h 34 min
Bit rate mode : Constant
Bit rate : 448 kb/s
Channel(s) : 6 channels
Channel layout : L R C LFE Ls Rs
Sampling rate : 48.0 kHz
Frame rate : 31.250 FPS (1536 SPF)
Compression mode : Lossy
Stream size : 302 MiB (9%)
Title : Ingles MiCineHD.com
Language : English
Service kind : Complete Main
Default : No
Forced : No

Text #1
ID : 4
Format : UTF-8
Codec ID : S_TEXT/UTF8
Codec ID/Info : UTF-8 Plain Text
Duration : 1 h 32 min
Bit rate : 37 b/s
Count of elements : 736
Stream size : 25.3 KiB (0%)
Title : Latino SRT MiCineHD.com
Language : Spanish
Default : Yes
Forced : No

Text #2
ID : 5
Format : UTF-8
Codec ID : S_TEXT/UTF8
Codec ID/Info : UTF-8 Plain Text
Duration : 1 h 31 min
Bit rate : 37 b/s
Count of elements : 876
Stream size : 25.2 KiB (0%)
Title : Ingles SRT MiCineHD.com
Language : English
Default : No
Forced : No

Text #3
ID : 6
Format : PGS
Muxing mode : zlib
Codec ID : S_HDMV/PGS
Codec ID/Info : Picture based subtitle format used on BDs/HD-DVDs
Duration : 1 h 33 min
Bit rate : 22.5 kb/s
Count of elements : 1478
Stream size : 15.0 MiB (0%)
Title : Latino PGS MiCineHD.com
Language : Spanish
Default : No
Forced : No

Text #4
ID : 7
Format : PGS
Muxing mode : zlib
Codec ID : S_HDMV/PGS
Codec ID/Info : Picture based subtitle format used on BDs/HD-DVDs
Duration : 1 h 33 min
Bit rate : 23.6 kb/s
Count of elements : 1774
Stream size : 15.7 MiB (0%)
Title : Ingles PGS MiCineHD.com
Language : English
Default : No
Forced : No

Text #5
ID : 8
Format : PGS
Muxing mode : zlib
Codec ID : S_HDMV/PGS
Codec ID/Info : Picture based subtitle format used on BDs/HD-DVDs
Duration : 1 h 33 min
Bit rate : 36.3 kb/s
Count of elements : 2806
Stream size : 24.2 MiB (1%)
Title : Ingles PGS SDH MiCineHD.com
Language : English
Default : No
Forced : No
Format : Matroska
Format version : Version 4
File size : 10.8 GiB
Duration : 1 h 33 min
Overall bit rate mode : Variable
Overall bit rate : 16.6 Mb/s
Movie name : Brave (2012) MiCineHD.com
Encoded date : UTC 2019-11-01 07:27:11
Writing application : mkvmerge v37.0.0 ('Leave It') 32-bit
Writing library : libebml v1.3.9 + libmatroska v1.5.2
Encoder : Gencro
Web : Exclusivo para MiCineHD.com

Video
ID : 1
Format : HEVC
Format/Info : High Efficiency Video Coding
Format profile : Main 10@L5.1@High
HDR format : SMPTE ST 2086, HDR10 compatible
Codec ID : V_MPEGH/ISO/HEVC
Duration : 1 h 33 min
Bit rate : 7 397 kb/s
Width : 3 840 pixels
Height : 1 606 pixels
Display aspect ratio : 2.40:1
Frame rate mode : Constant
Frame rate : 23.976 (24000/1001) FPS
Color space : YUV
Chroma subsampling : 4:2:0 (Type 2)
Bit depth : 10 bits
Bits/(Pixel*Frame) : 0.050
Stream size : 4.84 GiB (45%)
Title : Brave (2012) MiCineHD.com
Writing library : x265 3.1+11-de920e0a3183:[Windows][GCC 6.3.0][64 bit] 10bit
Encoding settings : cpuid=1111039 / frame-threads=4 / numa-pools=20 / wpp / no-pmode / no-pme / no-psnr / no-ssim / log-level=2 / input-csp=1 / input-res=3840x1606 / interlace=0 / total-frames=134626 / level-idc=51 / high-tier=1 / uhd-bd=0 / ref=4 / no-allow-non-conformance / repeat-headers / annexb / aud / hrd / info / hash=0 / no-temporal-layers / no-open-gop / min-keyint=1 / keyint=24 / gop-lookahead=0 / bframes=4 / b-adapt=2 / b-pyramid / bframe-bias=0 / rc-lookahead=25 / lookahead-slices=4 / scenecut=40 / radl=0 / no-splice / no-intra-refresh / ctu=64 / min-cu-size=8 / rect / no-amp / max-tu-size=32 / tu-inter-depth=1 / tu-intra-depth=1 / limit-tu=0 / rdoq-level=2 / dynamic-rd=0.00 / no-ssim-rd / signhide / no-tskip / nr-intra=0 / nr-inter=0 / no-constrained-intra / no-strong-intra-smoothing / max-merge=3 / limit-refs=3 / limit-modes / me=3 / subme=3 / merange=57 / temporal-mvp / no-hme / weightp / no-weightb / no-analyze-src-pics / deblock=-3:-3 / no-sao / no-sao-non-deblock / rd=4 / no-early-skip / rskip / no-fast-intra / no-tskip-fast / no-cu-lossless / no-b-intra / no-splitrd-skip / rdpenalty=0 / psy-rd=2.00 / psy-rdoq=1.00 / no-rd-refine / no-lossless / cbqpoffs=0 / crqpoffs=0 / rc=crf / crf=17.0 / qcomp=0.60 / qpstep=4 / stats-write=0 / stats-read=0 / vbv-maxrate=160000 / vbv-bufsize=160000 / vbv-init=0.9 / crf-max=0.0 / crf-min=0.0 / ipratio=1.40 / pbratio=1.30 / aq-mode=2 / aq-strength=1.00 / cutree / zone-count=0 / no-strict-cbr / qg-size=32 / no-rc-grain / qpmax=69 / qpmin=0 / no-const-vbv / sar=1 / overscan=0 / videoformat=5 / range=0 / colorprim=9 / transfer=16 / colormatrix=9 / chromaloc=1 / chromaloc-top=2 / chromaloc-bottom=2 / display-window=0 / master-display=G(13250,34500)B(7500,3000)R(34000,16000)WP(15635,16450)L(10000000,0)cll=0,0 / min-luma=0 / max-luma=1023 / log2-max-poc-lsb=8 / vui-timing-info / vui-hrd-info / slices=1 / no-opt-qp-pps / no-opt-ref-list-length-pps / no-multi-pass-opt-rps / scenecut-bias=0.05 / no-opt-cu-delta-qp / no-aq-motion / hdr / hdr-opt / no-dhdr10-opt / no-idr-recovery-sei / analysis-reuse-level=5 / scale-factor=0 / refine-intra=0 / refine-inter=0 / refine-mv=0 / refine-ctu-distortion=0 / no-limit-sao / ctu-info=0 / no-lowpass-dct / refine-analysis-type=0 / copy-pic=1 / max-ausize-factor=1.0 / no-dynamic-refine / no-single-sei / no-hevc-aq / no-svt / no-field / qp-adaptation-range=1.00
Default : Yes
Forced : No
Color range : Limited
Color primaries : BT.2020
Transfer characteristics : PQ
Matrix coefficients : BT.2020 non-constant
Mastering display color pri : Display P3
Mastering display luminance : min: 0.0000 cd/m2, max: 1000 cd/m2

Audio #1
ID : 2
Format : AC-3
Format/Info : Audio Coding 3
Commercial name : Dolby Digital
Codec ID : A_AC3
Duration : 1 h 33 min
Bit rate mode : Constant
Bit rate : 640 kb/s
Channel(s) : 6 channels
Channel layout : L R C LFE Ls Rs
Sampling rate : 48.0 kHz
Frame rate : 31.250 FPS (1536 SPF)
Compression mode : Lossy
Stream size : 429 MiB (4%)
Title : Latino MiCineHD.com
Language : Spanish
Service kind : Complete Main
Default : Yes
Forced : No

Audio #2
ID : 3
Format : AC-3
Format/Info : Audio Coding 3
Commercial name : Dolby Digital
Codec ID : A_AC3
Duration : 1 h 33 min
Bit rate mode : Constant
Bit rate : 640 kb/s
Channel(s) : 6 channels
Channel layout : L R C LFE Ls Rs
Sampling rate : 48.0 kHz
Frame rate : 31.250 FPS (1536 SPF)
Compression mode : Lossy
Stream size : 429 MiB (4%)
Title : Ingles AC3 5.1 MiCineHD.com
Language : English
Service kind : Complete Main
Default : No
Forced : No

Audio #3
ID : 4
Format : MLP FBA 16-ch
Format/Info : Meridian Lossless Packing FBA with 16-channel presentation
Commercial name : Dolby TrueHD with Dolby Atmos
Codec ID : A_TRUEHD
Duration : 1 h 33 min
Bit rate mode : Variable
Bit rate : 7 827 kb/s
Maximum bit rate : 10.9 Mb/s
Channel(s) : 8 channels
Channel layout : L R C LFE Ls Rs Lb Rb
Sampling rate : 48.0 kHz
Frame rate : 1 200.000 FPS (40 SPF)
Compression mode : Lossless
Stream size : 5.12 GiB (47%)
Title : Ingles THD 7.1 MiCineHD.com
Language : English
Default : No
Forced : No
Number of dynamic objects : 13
Bed channel count : 1 channel
Bed channel configuration : LFE

Text #1
ID : 5
Format : UTF-8
Codec ID : S_TEXT/UTF8
Codec ID/Info : UTF-8 Plain Text
Duration : 1 h 32 min
Bit rate : 37 b/s
Count of elements : 736
Stream size : 25.3 KiB (0%)
Title : Latino SRT MiCineHD.com
Language : Spanish
Default : Yes
Forced : No

Text #2
ID : 6
Format : UTF-8
Codec ID : S_TEXT/UTF8
Codec ID/Info : UTF-8 Plain Text
Duration : 1 h 31 min
Bit rate : 37 b/s
Count of elements : 876
Stream size : 25.2 KiB (0%)
Title : Ingles SRT MiCineHD.com
Language : English
Default : No
Forced : No

Text #3
ID : 7
Format : PGS
Muxing mode : zlib
Codec ID : S_HDMV/PGS
Codec ID/Info : Picture based subtitle format used on BDs/HD-DVDs
Duration : 1 h 32 min
Bit rate : 22.5 kb/s
Count of elements : 1472
Stream size : 14.8 MiB (0%)
Title : Latino PGS MiCineHD.com
Language : Spanish
Default : No
Forced : No

Text #4
ID : 8
Format : PGS
Muxing mode : zlib
Codec ID : S_HDMV/PGS
Codec ID/Info : Picture based subtitle format used on BDs/HD-DVDs
Duration : 1 h 32 min
Bit rate : 36.3 kb/s
Count of elements : 2802
Stream size : 24.0 MiB (0%)
Title : Ingles PGS SDH MiCineHD.com
Language : English
Default : No
Forced : No

Menu
00:00:00.000 : :Chapter 01
00:04:23.680 : :Chapter 02
00:09:18.266 : :Chapter 03
00:12:54.190 : :Chapter 04
00:14:01.090 : :Chapter 05
00:16:11.304 : :Chapter 06
00:17:37.515 : :Chapter 07
00:22:56.625 : :Chapter 08
00:27:23.725 : :Chapter 09
00:28:52.064 : :Chapter 10
00:30:55.687 : :Chapter 11
00:34:01.206 : :Chapter 12
00:36:04.329 : :Chapter 13
00:39:07.762 : :Chapter 14
00:41:55.930 : :Chapter 15
00:43:28.815 : :Chapter 16
00:47:06.574 : :Chapter 17
00:48:23.192 : :Chapter 18
00:51:04.895 : :Chapter 19
00:52:34.693 : :Chapter 20
00:54:01.989 : :Chapter 21
00:54:46.533 : :Chapter 22
00:57:31.698 : :Chapter 23
00:59:00.996 : :Chapter 24
01:02:49.015 : :Chapter 25
01:03:28.221 : :Chapter 26
01:09:58.569 : :Chapter 27
01:10:38.109 : :Chapter 28
01:12:36.561 : :Chapter 29
01:13:40.333 : :Chapter 30
01:15:36.323 : :Chapter 31
01:16:59.907 : :Chapter 32
01:17:37.945 : :Chapter 33
01:19:49.034 : :Chapter 34
01:23:17.618 : :Chapter 35
01:24:39.491 : :Chapter 36
01:33:28.436 : :Chapter 37
Format : Matroska
Format version : Version 4
File size : 20.7 GiB
Duration : 1 h 33 min
Overall bit rate mode : Variable
Overall bit rate : 31.6 Mb/s
Movie name : Brave (2012) MiCineHD.com
Encoded date : UTC 2019-11-01 07:08:53
Writing application : mkvmerge v37.0.0 ('Leave It') 32-bit
Writing library : libebml v1.3.9 + libmatroska v1.5.2
Encoder : Gencro
Web : Exclusivo para MiCineHD.com

Video
ID : 1
Format : AVC
Format/Info : Advanced Video Codec
Format profile : High@L4.1
Format settings : CABAC / 4 Ref Frames
Format settings, CABAC : Yes
Format settings, Reference : 4 frames
Codec ID : V_MPEG4/ISO/AVC
Duration : 1 h 33 min
Bit rate mode : Variable
Bit rate : 23.8 Mb/s
Maximum bit rate : 31.5 Mb/s
Width : 1 920 pixels
Height : 1 080 pixels
Display aspect ratio : 16:9
Frame rate mode : Constant
Frame rate : 23.976 (23976/1000) FPS
Original frame rate : 23.976 (24000/1001) FPS
Color space : YUV
Chroma subsampling : 4:2:0
Bit depth : 8 bits
Scan type : Progressive
Bits/(Pixel*Frame) : 0.478
Stream size : 15.5 GiB (75%)
Title : Brave (2012) MiCineHD.com
Default : Yes
Forced : No

Audio #1
ID : 2
Format : AC-3
Format/Info : Audio Coding 3
Commercial name : Dolby Digital
Codec ID : A_AC3
Duration : 1 h 33 min
Bit rate mode : Constant
Bit rate : 640 kb/s
Channel(s) : 6 channels
Channel layout : L R C LFE Ls Rs
Sampling rate : 48.0 kHz
Frame rate : 31.250 FPS (1536 SPF)
Compression mode : Lossy
Stream size : 429 MiB (2%)
Title : Latino MiCineHD.com
Language : Spanish
Service kind : Complete Main
Default : Yes
Forced : No

Audio #2
ID : 3
Format : AC-3
Format/Info : Audio Coding 3
Commercial name : Dolby Digital
Codec ID : A_AC3
Duration : 1 h 33 min
Bit rate mode : Constant
Bit rate : 640 kb/s
Channel(s) : 6 channels
Channel layout : L R C LFE Ls Rs
Sampling rate : 48.0 kHz
Frame rate : 31.250 FPS (1536 SPF)
Compression mode : Lossy
Stream size : 429 MiB (2%)
Title : Ingles AC3 5.1 MiCineHD.com
Language : English
Service kind : Complete Main
Default : No
Forced : No

Audio #3
ID : 4
Format : MLP FBA
Format/Info : Meridian Lossless Packing FBA
Commercial name : Dolby TrueHD
Codec ID : A_TRUEHD
Duration : 1 h 33 min
Bit rate mode : Variable
Bit rate : 6 445 kb/s
Maximum bit rate : 8 373 kb/s
Channel(s) : 8 channels
Channel layout : L R C LFE Ls Rs Lb Rb
Sampling rate : 48.0 kHz
Frame rate : 1 200.000 FPS (40 SPF)
Compression mode : Lossless
Stream size : 4.21 GiB (20%)
Title : Ingles THD 7.1 MiCineHD.com
Language : English
Default : No
Forced : No

Text #1
ID : 5
Format : UTF-8
Codec ID : S_TEXT/UTF8
Codec ID/Info : UTF-8 Plain Text
Duration : 1 h 32 min
Bit rate : 37 b/s
Count of elements : 736
Stream size : 25.3 KiB (0%)
Title : Latino SRT MiCineHD.com
Language : Spanish
Default : Yes
Forced : No

Text #2
ID : 6
Format : UTF-8
Codec ID : S_TEXT/UTF8
Codec ID/Info : UTF-8 Plain Text
Duration : 1 h 31 min
Bit rate : 37 b/s
Count of elements : 876
Stream size : 25.2 KiB (0%)
Title : Ingles SRT MiCineHD.com
Language : English
Default : No
Forced : No

Text #3
ID : 7
Format : PGS
Muxing mode : zlib
Codec ID : S_HDMV/PGS
Codec ID/Info : Picture based subtitle format used on BDs/HD-DVDs
Duration : 1 h 33 min
Bit rate : 22.5 kb/s
Count of elements : 1478
Stream size : 15.0 MiB (0%)
Title : Latino PGS MiCineHD.com
Language : Spanish
Default : No
Forced : No

Text #4
ID : 8
Format : PGS
Muxing mode : zlib
Codec ID : S_HDMV/PGS
Codec ID/Info : Picture based subtitle format used on BDs/HD-DVDs
Duration : 1 h 33 min
Bit rate : 23.6 kb/s
Count of elements : 1774
Stream size : 15.7 MiB (0%)
Title : Ingles PGS MiCineHD.com
Language : English
Default : No
Forced : No

Text #5
ID : 9
Format : PGS
Muxing mode : zlib
Codec ID : S_HDMV/PGS
Codec ID/Info : Picture based subtitle format used on BDs/HD-DVDs
Duration : 1 h 33 min
Bit rate : 36.3 kb/s
Count of elements : 2806
Stream size : 24.2 MiB (0%)
Title : Ingles PGS SDH MiCineHD.com
Language : English
Default : No
Forced : No

Menu
00:00:00.000 : :Chapter 01
00:04:22.845 : :Chapter 02
00:09:17.431 : :Chapter 03
00:12:53.355 : :Chapter 04
00:14:00.256 : :Chapter 05
00:16:10.469 : :Chapter 06
00:17:36.680 : :Chapter 07
00:22:55.791 : :Chapter 08
00:27:22.891 : :Chapter 09
00:28:51.229 : :Chapter 10
00:30:54.852 : :Chapter 11
00:34:00.371 : :Chapter 12
00:36:03.494 : :Chapter 13
00:39:06.927 : :Chapter 14
00:41:55.095 : :Chapter 15
00:43:27.980 : :Chapter 16
00:47:05.739 : :Chapter 17
00:48:22.357 : :Chapter 18
00:51:04.060 : :Chapter 19
00:52:33.859 : :Chapter 20
00:54:01.154 : :Chapter 21
00:54:45.699 : :Chapter 22
00:57:30.864 : :Chapter 23
00:59:00.161 : :Chapter 24
01:02:48.181 : :Chapter 25
01:03:27.386 : :Chapter 26
01:09:57.735 : :Chapter 27
01:10:37.274 : :Chapter 28
01:12:35.726 : :Chapter 29
01:13:39.498 : :Chapter 30
01:15:35.489 : :Chapter 31
01:16:59.072 : :Chapter 32
01:17:37.110 : :Chapter 33
01:19:48.200 : :Chapter 34
01:23:16.783 : :Chapter 35
01:24:38.656 : :Chapter 36
01:32:52.566 : :Chapter 37

Reportar Error Visitas: 10