Links Vip MCHD

Contenido Exclusivo

Todo aporte con enlaces de GDrive que pida permiso para descargar, se perdió, debido a que Google baneó múltiples cuentas, por lo tanto esos archivos están inaccesibles para descargar

Todos los enlaces rar son intercambiables

Problemas de contraseña o archivo dañado? repara siguiendo esta guía

The Secret Life of Pets 2 (2019) Dual 1080p 3D SBS MediaInfo

Format : Matroska
Format version : Version 4
File size : 12.3 GiB
Duration : 1 h 26 min
Overall bit rate mode : Variable
Overall bit rate : 20.5 Mb/s
Movie name : The Secret Life of Pets 2 (2019) MiCineHD.com
Encoded date : UTC 2019-11-04 03:41:37
Writing application : mkvmerge v37.0.0 ('Leave It') 32-bit
Writing library : libebml v1.3.9 + libmatroska v1.5.2
Encoder : Gencro
Web : Exclusivo para MiCineHD.com

Video
ID : 1
Format : AVC
Format/Info : Advanced Video Codec
Format profile : High@L4.1
Format settings : CABAC / 3 Ref Frames
Format settings, CABAC : Yes
Format settings, Reference : 3 frames
Codec ID : V_MPEG4/ISO/AVC
Duration : 1 h 26 min
Bit rate : 15.5 Mb/s
Width : 1 920 pixels
Height : 1 080 pixels
Display aspect ratio : 16:9
Frame rate mode : Constant
Frame rate : 23.976 (24000/1001) FPS
Color space : YUV
Chroma subsampling : 4:2:0
Bit depth : 8 bits
Scan type : Progressive
Bits/(Pixel*Frame) : 0.312
Stream size : 9.02 GiB (73%)
Title : The Secret Life of Pets 2 (2019) MiCineHD.com
Writing library : x264 core 148
Encoding settings : cabac=1 / ref=3 / deblock=1:-1:-1 / analyse=0x3:0 / me=hex / subme=5 / psy=1 / psy_rd=1.00:0.00 / mixed_ref=0 / me_range=16 / chroma_me=1 / trellis=1 / 8x8dct=1 / cqm=0 / deadzone=21,11 / fast_pskip=0 / chroma_qp_offset=0 / threads=24 / lookahead_threads=6 / sliced_threads=0 / nr=0 / decimate=1 / interlaced=0 / bluray_compat=0 / constrained_intra=0 / bframes=2 / b_pyramid=0 / b_adapt=1 / b_bias=0 / direct=1 / weightb=0 / open_gop=0 / weightp=0 / keyint=24 / keyint_min=2 / scenecut=40 / intra_refresh=0 / rc=abr / mbtree=0 / bitrate=15500 / ratetol=1.0 / qcomp=0.60 / qpmin=0 / qpmax=69 / qpstep=4 / ip_ratio=1.40 / pb_ratio=1.30 / aq=1:1.00
Default : Yes
Forced : No
Color range : Limited
Color primaries : BT.709
Transfer characteristics : BT.709
Matrix coefficients : BT.709

Audio #1
ID : 2
Format : AC-3
Format/Info : Audio Coding 3
Commercial name : Dolby Digital
Codec ID : A_AC3
Duration : 1 h 26 min
Bit rate mode : Constant
Bit rate : 640 kb/s
Channel(s) : 6 channels
Channel layout : L R C LFE Ls Rs
Sampling rate : 48.0 kHz
Frame rate : 31.250 FPS (1536 SPF)
Compression mode : Lossy
Stream size : 394 MiB (3%)
Title : Latino MiCineHD.com
Language : Spanish
Service kind : Complete Main
Default : No
Forced : No

Audio #2
ID : 3
Format : AC-3
Format/Info : Audio Coding 3
Commercial name : Dolby Digital
Codec ID : A_AC3
Duration : 1 h 26 min
Bit rate mode : Constant
Bit rate : 640 kb/s
Channel(s) : 6 channels
Channel layout : L R C LFE Ls Rs
Sampling rate : 48.0 kHz
Frame rate : 31.250 FPS (1536 SPF)
Compression mode : Lossy
Stream size : 394 MiB (3%)
Title : Ingles MiCineHD.com
Language : English
Service kind : Complete Main
Default : No
Forced : No

Audio #3
ID : 4
Format : E-AC-3
Format/Info : Enhanced AC-3
Commercial name : Dolby Digital Plus
Format profile : Blu-ray Disc
Codec ID : A_EAC3
Duration : 1 h 26 min
Bit rate mode : Constant
Bit rate : 768 kb/s
Channel(s) : 8 channels
Channel layout : L R C LFE Ls Rs Lb Rb
Sampling rate : 48.0 kHz
Frame rate : 31.250 FPS (1536 SPF)
Compression mode : Lossy
Stream size : 473 MiB (4%)
Title : Latino E-AC3 7.1 MiCineHD.com
Language : Spanish
Service kind : Complete Main
Default : No
Forced : No

Audio #4
ID : 5
Format : MLP FBA 16-ch
Format/Info : Meridian Lossless Packing FBA with 16-channel presentation
Commercial name : Dolby TrueHD with Dolby Atmos
Codec ID : A_TRUEHD
Duration : 1 h 26 min
Bit rate mode : Variable
Bit rate : 3 319 kb/s
Maximum bit rate : 4 647 kb/s
Channel(s) : 8 channels
Channel layout : L R C LFE Ls Rs Lb Rb
Sampling rate : 48.0 kHz
Frame rate : 1 200.000 FPS (40 SPF)
Compression mode : Lossless
Stream size : 1.99 GiB (16%)
Title : Ingles THD 7.1 MiCineHD.com
Language : English
Default : Yes
Forced : No
Number of dynamic objects : 11
Bed channel count : 1 channel
Bed channel configuration : LFE

Text #1
ID : 6
Format : UTF-8
Codec ID : S_TEXT/UTF8
Codec ID/Info : UTF-8 Plain Text
Duration : 25 min 38 s
Bit rate : 0 b/s
Count of elements : 3
Stream size : 113 Bytes (0%)
Title : Forzados SRT MiCineHD.com
Language : Spanish
Default : No
Forced : No

Text #2
ID : 7
Format : UTF-8
Codec ID : S_TEXT/UTF8
Codec ID/Info : UTF-8 Plain Text
Duration : 1 h 25 min
Bit rate : 44 b/s
Count of elements : 1087
Stream size : 27.6 KiB (0%)
Title : Latino SRT MiCineHD.com
Language : Spanish
Default : No
Forced : No

Text #3
ID : 8
Format : UTF-8
Codec ID : S_TEXT/UTF8
Codec ID/Info : UTF-8 Plain Text
Duration : 1 h 25 min
Bit rate : 47 b/s
Count of elements : 1228
Stream size : 29.9 KiB (0%)
Title : Ingles SRT MiCineHD.com
Language : English
Default : No
Forced : No

Text #4
ID : 9
Format : PGS
Muxing mode : zlib
Codec ID : S_HDMV/PGS
Codec ID/Info : Picture based subtitle format used on BDs/HD-DVDs
Duration : 1 h 20 min
Bit rate : 254 b/s
Count of elements : 10
Stream size : 150 KiB (0%)
Title : Forzados PGS MiCineHD.com
Language : Spanish
Default : No
Forced : No

Text #5
ID : 10
Format : PGS
Muxing mode : zlib
Codec ID : S_HDMV/PGS
Codec ID/Info : Picture based subtitle format used on BDs/HD-DVDs
Duration : 1 h 25 min
Bit rate : 36.5 kb/s
Count of elements : 2178
Stream size : 22.3 MiB (0%)
Title : Latino PGS MiCineHD.com
Language : Spanish
Default : No
Forced : No

Text #6
ID : 11
Format : PGS
Muxing mode : zlib
Codec ID : S_HDMV/PGS
Codec ID/Info : Picture based subtitle format used on BDs/HD-DVDs
Duration : 1 h 25 min
Bit rate : 61.2 kb/s
Count of elements : 3284
Stream size : 37.4 MiB (0%)
Title : Ingles PGS MiCineHD.com
Language : English
Default : Yes
Forced : No

Menu
00:00:00.000 : en:Chapter 01
00:05:34.542 : en:Chapter 02
00:10:07.815 : en:Chapter 03
00:13:26.305 : en:Chapter 04
00:16:39.790 : en:Chapter 05
00:19:56.945 : en:Chapter 06
00:24:10.073 : en:Chapter 07
00:28:15.735 : en:Chapter 08
00:30:54.269 : en:Chapter 09
00:35:15.113 : en:Chapter 10
00:39:55.976 : en:Chapter 11
00:45:47.327 : en:Chapter 12
00:49:51.822 : en:Chapter 13
00:56:54.994 : en:Chapter 14
00:58:35.220 : en:Chapter 15
01:02:48.931 : en:Chapter 16
01:07:16.615 : en:Chapter 17
01:12:48.822 : en:Chapter 18
01:15:21.808 : en:Chapter 19
01:18:10.018 : en:Chapter 20

Reportar Error Visitas: 3