Links Vip MCHD

Contenido Exclusivo

Todo aporte con enlaces de GDrive que pida permiso para descargar, se perdió, debido a que Google baneó múltiples cuentas, por lo tanto esos archivos están inaccesibles para descargar

Todos los enlaces rar son intercambiables

Problemas de contraseña o archivo dañado? repara siguiendo esta guía

Toy Story 2 (1999) MediaInfo

Format : Matroska
Format version : Version 4 / Version 2
File size : 3.91 GiB
Duration : 1 h 38 min
Overall bit rate : 5 704 kb/s
Movie name : Toy Story 2 (1999) MiCineHD
Encoded date : UTC 2018-09-15 21:28:40 / UTC 2018-09-15T13:03:11Z
Writing application : mkvmerge v23.0.0 ('The Bride Said No') 64-bit
Writing library : libebml v1.3.6 + libmatroska v1.4.9 / Lavf57.7.2

Video
ID : 1
Format : AVC
Format/Info : Advanced Video Codec
Format profile : Main@L4.1
Format settings : CABAC / 4 Ref Frames
Format settings, CABAC : Yes
Format settings, ReFrames : 4 frames
Codec ID : V_MPEG4/ISO/AVC
Duration : 1 h 38 min
Bit rate : 4 310 kb/s
Nominal bit rate : 4 800 kb/s
Width : 1 920 pixels
Height : 1 080 pixels
Display aspect ratio : 16:9
Frame rate mode : Constant
Frame rate : 23.976 (24000/1001) FPS
Color space : YUV
Chroma subsampling : 4:2:0
Bit depth : 8 bits
Scan type : Progressive
Bits/(Pixel*Frame) : 0.087
Stream size : 2.96 GiB (76%)
Title : Toy Story 2 (1999) MiCineHD
Writing library : x264 core 148 r2708 86b7198
Encoding settings : cabac=1 / ref=4 / deblock=1:-2:-2 / analyse=0x1:0x131 / me=esa / subme=9 / psy=1 / psy_rd=1.00:0.25 / mixed_ref=1 / me_range=16 / chroma_me=1 / trellis=2 / 8x8dct=0 / cqm=0 / deadzone=6,6 / fast_pskip=1 / chroma_qp_offset=-4 / threads=12 / lookahead_threads=2 / sliced_threads=0 / nr=0 / decimate=0 / interlaced=0 / bluray_compat=0 / constrained_intra=0 / bframes=8 / b_pyramid=2 / b_adapt=2 / b_bias=0 / direct=3 / weightb=1 / open_gop=0 / weightp=2 / keyint=240 / keyint_min=24 / scenecut=40 / intra_refresh=0 / rc_lookahead=60 / rc=abr / mbtree=1 / bitrate=4800 / ratetol=1.0 / qcomp=0.80 / qpmin=0 / qpmax=69 / qpstep=4 / vbv_maxrate=50000 / vbv_bufsize=62500 / nal_hrd=none / filler=0 / ip_ratio=1.10 / aq=1:0.50
Default : Yes
Forced : No
Color range : Limited
Color primaries : BT.709
Transfer characteristics : BT.709
Matrix coefficients : BT.709
Statistics Tags Issue : mkvmerge v23.0.0 ('The Bride Said No') 64-bit 2018-09-15 21:28:40 / mkvmerge v23.0.0 ('The Bride Said No') 64-bit 2018-09-15 21:28:40 / UTC 2018-09-15T13:03:11Z
FromStats_BitRate : 4730235
FromStats_Duration : 01:32:54.611000000
FromStats_FrameCount : 133657
FromStats_StreamSize : 3296153043

Audio #1
ID : 2
Format : AC-3
Format/Info : Audio Coding 3
Codec ID : A_AC3
Duration : 1 h 38 min
Bit rate mode : Constant
Bit rate : 640 kb/s
Channel(s) : 6 channels
Channel positions : Front: L C R, Side: L R, LFE
Sampling rate : 48.0 kHz
Frame rate : 31.250 FPS (1536 SPF)
Bit depth : 16 bits
Compression mode : Lossy
Stream size : 450 MiB (11%)
Title : Latino
Language : Spanish
Service kind : Complete Main
Default : Yes
Forced : No
Statistics Tags Issue : mkvmerge v23.0.0 ('The Bride Said No') 64-bit 2018-09-15 21:28:40 / mkvmerge v23.0.0 ('The Bride Said No') 64-bit 2018-09-15 21:28:40 / UTC 2018-09-15T13:03:11Z
FromStats_BitRate : 640000
FromStats_Duration : 01:32:55.552000000
FromStats_FrameCount : 174236
FromStats_StreamSize : 446044160

Audio #2
ID : 3
Format : AC-3
Format/Info : Audio Coding 3
Codec ID : A_AC3
Duration : 1 h 38 min
Bit rate mode : Constant
Bit rate : 640 kb/s
Channel(s) : 6 channels
Channel positions : Front: L C R, Side: L R, LFE
Sampling rate : 48.0 kHz
Frame rate : 31.250 FPS (1536 SPF)
Bit depth : 16 bits
Compression mode : Lossy
Stream size : 450 MiB (11%)
Title : Ingles
Language : English
Service kind : Complete Main
Default : No
Forced : No
Statistics Tags Issue : mkvmerge v23.0.0 ('The Bride Said No') 64-bit 2018-09-15 21:28:40 / mkvmerge v23.0.0 ('The Bride Said No') 64-bit 2018-09-15 21:28:40 / UTC 2018-09-15T13:03:11Z
FromStats_BitRate : 640000
FromStats_Duration : 01:32:55.584000000
FromStats_FrameCount : 174237
FromStats_StreamSize : 446046720

Text #1
ID : 4
Format : UTF-8
Codec ID : S_TEXT/UTF8
Codec ID/Info : UTF-8 Plain Text
Title : Latino SRT
Default : Yes
Forced : No
Statistics Tags Issue : mkvmerge v23.0.0 ('The Bride Said No') 64-bit 2018-09-15 21:28:40 / mkvmerge v23.0.0 ('The Bride Said No') 64-bit 2018-09-15 21:28:40 / UTC 2018-09-15T13:03:11Z
FromStats_BitRate : 67
FromStats_Duration : 01:29:49.351000000
FromStats_FrameCount : 1106
FromStats_StreamSize : 45766

Text #2
ID : 5
Format : UTF-8
Codec ID : S_TEXT/UTF8
Codec ID/Info : UTF-8 Plain Text
Title : Ingles SRT
Language : English
Default : No
Forced : No
Statistics Tags Issue : mkvmerge v23.0.0 ('The Bride Said No') 64-bit 2018-09-15 21:28:40 / mkvmerge v23.0.0 ('The Bride Said No') 64-bit 2018-09-15 21:28:40 / UTC 2018-09-15T13:03:11Z
FromStats_BitRate : 60
FromStats_Duration : 01:35:56.124000000
FromStats_FrameCount : 1187
FromStats_StreamSize : 43595

Text #3
ID : 6
Format : PGS
Muxing mode : zlib
Codec ID : S_HDMV/PGS
Codec ID/Info : Picture based subtitle format used on BDs/HD-DVDs
Title : Latino PGS
Language : Spanish
Default : No
Forced : No
Statistics Tags Issue : mkvmerge v23.0.0 ('The Bride Said No') 64-bit 2018-09-15 21:28:40 / mkvmerge v23.0.0 ('The Bride Said No') 64-bit 2018-09-15 21:28:40 / UTC 2018-09-15T13:03:11Z
FromStats_BitRate : 35111
FromStats_Duration : 01:28:54.122000000
FromStats_FrameCount : 2378
FromStats_StreamSize : 23411016

Text #4
ID : 7
Format : PGS
Muxing mode : zlib
Codec ID : S_HDMV/PGS
Codec ID/Info : Picture based subtitle format used on BDs/HD-DVDs
Title : Ingles PGS
Language : English
Default : No
Forced : No
Statistics Tags Issue : mkvmerge v23.0.0 ('The Bride Said No') 64-bit 2018-09-15 21:28:40 / mkvmerge v23.0.0 ('The Bride Said No') 64-bit 2018-09-15 21:28:40 / UTC 2018-09-15T13:03:11Z
FromStats_BitRate : 43629
FromStats_Duration : 01:31:22.396000000
FromStats_FrameCount : 2906
FromStats_StreamSize : 29899360

Menu
00:00:00.000 : :(01)00:00:00:000
00:01:23.667 : :(02)00:01:23:583
00:04:48.288 : :(03)00:04:48:287
00:07:35.789 : :(04)00:07:35:788
00:10:40.932 : :(05)00:10:40:931
00:11:54.797 : :(06)00:11:54:797
00:12:47.100 : :(07)00:12:47:099
00:15:29.929 : :(08)00:15:29:928
00:18:15.845 : :(09)00:18:15:844
00:20:17.591 : :(10)00:20:17:591
00:24:14.036 : :(11)00:24:14:035
00:25:54.428 : :(12)00:25:54:386
00:30:32.122 : :(13)00:30:32:121
00:31:48.448 : :(14)00:31:48:448
00:32:51.470 : :(15)00:32:51:469
00:36:44.994 : :(16)00:36:44:994
00:39:09.138 : :(17)00:39:09:138
00:39:53.099 : :(18)00:39:53:057
00:41:06.339 : :(19)00:41:06:338
00:42:26.210 : :(20)00:42:26:210
00:44:41.345 : :(21)00:44:41:345
00:46:58.649 : :(22)00:46:58:565
00:53:23.951 : :(23)00:53:23:950
00:56:19.918 : :(24)00:56:19:918
01:01:10.041 : :(25)01:01:10:041
01:02:14.272 : :(26)01:02:14:272
01:04:23.902 : :(27)01:04:23:901
01:08:00.410 : :(28)01:08:00:409
01:09:52.188 : :(29)01:09:52:187
01:12:27.468 : :(30)01:12:27:467
01:14:58.494 : :(31)01:14:58:493
01:17:28.310 : :(32)01:17:28:310
01:19:46.282 : :(33)01:19:46:281
01:21:35.808 : :(34)01:21:35:807
01:25:48.977 : :(35)01:25:48:977
Format : Matroska
Format version : Version 4
File size : 19.2 GiB
Duration : 1 h 38 min
Overall bit rate mode : Variable
Overall bit rate : 27.9 Mb/s
Movie name : Toy Story 2 (1999) MiCineHD.com
Encoded date : UTC 2019-10-06 20:24:50
Writing application : mkvmerge v37.0.0 ('Leave It') 32-bit
Writing library : libebml v1.3.9 + libmatroska v1.5.2
Encoder : Gencro
Web : Exclusivo para MiCineHD.com

Video
ID : 1
Format : AVC
Format/Info : Advanced Video Codec
Format profile : High@L4.1
Format settings : CABAC / 4 Ref Frames
Format settings, CABAC : Yes
Format settings, Reference : 4 frames
Codec ID : V_MPEG4/ISO/AVC
Duration : 1 h 32 min
Bit rate mode : Variable
Bit rate : 24.3 Mb/s
Maximum bit rate : 34.0 Mb/s
Width : 1 920 pixels
Height : 1 080 pixels
Display aspect ratio : 16:9
Frame rate mode : Constant
Frame rate : 23.976 (23976/1000) FPS
Original frame rate : 23.976 (24000/1001) FPS
Color space : YUV
Chroma subsampling : 4:2:0
Bit depth : 8 bits
Scan type : Progressive
Bits/(Pixel*Frame) : 0.489
Stream size : 15.7 GiB (82%)
Title : Toy Story 2 (1999) MiCineHD.com
Default : Yes
Forced : No
Color range : Limited
Color primaries : BT.709
Transfer characteristics : BT.709
Matrix coefficients : BT.709

Audio #1
ID : 2
Format : AC-3
Format/Info : Audio Coding 3
Commercial name : Dolby Digital
Codec ID : A_AC3
Duration : 1 h 32 min
Bit rate mode : Constant
Bit rate : 640 kb/s
Channel(s) : 6 channels
Channel layout : L R C LFE Ls Rs
Sampling rate : 48.0 kHz
Frame rate : 31.250 FPS (1536 SPF)
Compression mode : Lossy
Stream size : 423 MiB (2%)
Title : Latino MiCineHD.com
Language : Spanish
Service kind : Complete Main
Default : Yes
Forced : No

Audio #2
ID : 3
Format : AC-3
Format/Info : Audio Coding 3
Commercial name : Dolby Digital
Codec ID : A_AC3
Duration : 1 h 32 min
Bit rate mode : Constant
Bit rate : 640 kb/s
Channel(s) : 6 channels
Channel layout : L R C LFE Ls Rs
Sampling rate : 48.0 kHz
Frame rate : 31.250 FPS (1536 SPF)
Compression mode : Lossy
Stream size : 423 MiB (2%)
Title : Ingles MiCineHD.com
Language : English
Service kind : Complete Main
Default : No
Forced : No

Audio #3
ID : 4
Format : DTS ES XLL
Format/Info : Digital Theater Systems
Commercial name : DTS-HD Master Audio
Codec ID : A_DTS
Duration : 1 h 32 min
Bit rate mode : Variable
Bit rate : 4 039 kb/s
Channel(s) : 6 channels
Channel(s)_Original : 7 channels
ChannelLayout_Original : C L R Ls Rs LFE Cs
Sampling rate : 48.0 kHz
Frame rate : 93.750 FPS (512 SPF)
Bit depth : 24 bits
Compression mode : Lossless
Stream size : 2.61 GiB (14%)
Title : Ingles DTS-MA MiCineHD.com
Language : English
Default : No
Forced : No

Text #1
ID : 5
Format : UTF-8
Codec ID : S_TEXT/UTF8
Codec ID/Info : UTF-8 Plain Text
Duration : 1 h 29 min
Bit rate : 67 b/s
Count of elements : 1106
Stream size : 44.7 KiB (0%)
Title : Latino SRT MiCineHD.com
Language : Spanish
Default : No
Forced : No

Text #2
ID : 6
Format : UTF-8
Codec ID : S_TEXT/UTF8
Codec ID/Info : UTF-8 Plain Text
Duration : 1 h 35 min
Bit rate : 60 b/s
Count of elements : 1187
Stream size : 42.6 KiB (0%)
Title : Ingles SRT MiCineHD.com
Language : English
Default : No
Forced : No

Text #3
ID : 7
Format : PGS
Muxing mode : zlib
Codec ID : S_HDMV/PGS
Codec ID/Info : Picture based subtitle format used on BDs/HD-DVDs
Duration : 1 h 32 min
Bit rate : 38.5 kb/s
Count of elements : 2382
Stream size : 25.5 MiB (0%)
Title : Latino PGS MiCineHD.com
Language : Spanish
Default : Yes
Forced : No

Text #4
ID : 8
Format : PGS
Muxing mode : zlib
Codec ID : S_HDMV/PGS
Codec ID/Info : Picture based subtitle format used on BDs/HD-DVDs
Duration : 1 h 31 min
Bit rate : 49.5 kb/s
Count of elements : 2906
Stream size : 32.5 MiB (0%)
Title : Ingles PGS MiCineHD.com
Language : English
Default : No
Forced : No

Menu
00:00:00.000 : :Chapter 01
00:01:23.583 : :Chapter 02
00:04:48.287 : :Chapter 03
00:07:35.788 : :Chapter 04
00:10:40.931 : :Chapter 05
00:11:54.797 : :Chapter 06
00:12:47.099 : :Chapter 07
00:15:29.928 : :Chapter 08
00:18:15.844 : :Chapter 09
00:20:17.591 : :Chapter 10
00:24:14.035 : :Chapter 11
00:25:54.386 : :Chapter 12
00:30:32.121 : :Chapter 13
00:31:48.448 : :Chapter 14
00:32:51.469 : :Chapter 15
00:36:44.994 : :Chapter 16
00:39:09.138 : :Chapter 17
00:39:53.057 : :Chapter 18
00:41:06.338 : :Chapter 19
00:42:26.210 : :Chapter 20
00:44:41.345 : :Chapter 21
00:46:58.565 : :Chapter 22
00:53:23.950 : :Chapter 23
00:56:19.918 : :Chapter 24
01:01:10.041 : :Chapter 25
01:02:14.272 : :Chapter 26
01:04:23.901 : :Chapter 27
01:08:00.409 : :Chapter 28
01:09:52.187 : :Chapter 29
01:12:27.467 : :Chapter 30
01:14:58.493 : :Chapter 31
01:17:28.310 : :Chapter 32
01:19:46.281 : :Chapter 33
01:21:35.807 : :Chapter 34
01:25:48.977 : :Chapter 35

Reportar Error Visitas: 72