Links Vip MCHD

Contenido Exclusivo

Todo aporte con enlaces de GDrive que pida permiso para descargar, se perdió, debido a que Google baneó múltiples cuentas, por lo tanto esos archivos están inaccesibles para descargar

Todos los enlaces rar son intercambiables

Problemas de contraseña o archivo dañado? repara siguiendo esta guía

Spartacus Blood and Sand (2010) MediaInfo

Format : Matroska
Format version : Version 4
File size : 1.25 GiB
Duration : 54 min 56 s
Overall bit rate : 3 252 kb/s
Movie name : Spartacus Blood and Sand (2010) Dual Full 1080p 01
Encoded date : UTC 2018-02-26 05:06:38
Writing application : mkvmerge v15.0.0 ('Duel with the Devil') 64-bit
Writing library : libebml v1.3.5 + libmatroska v1.4.5

Video
ID : 1
Format : AVC
Format/Info : Advanced Video Codec
Format profile : High@L4
Format settings : CABAC / 4 Ref Frames
Format settings, CABAC : Yes
Format settings, Reference : 4 frames
Codec ID : V_MPEG4/ISO/AVC
Duration : 54 min 56 s
Bit rate : 2 400 kb/s
Width : 1 920 pixels
Height : 1 080 pixels
Display aspect ratio : 16:9
Frame rate mode : Constant
Frame rate : 23.976 (24000/1001) FPS
Color space : YUV
Chroma subsampling : 4:2:0
Bit depth : 8 bits
Scan type : Progressive
Bits/(Pixel*Frame) : 0.048
Stream size : 943 MiB (74%)
Title : Spartacus Blood and Sand (2010) Dual Full 1080p 01
Writing library : x264 core 142 r2479 dd79a61
Encoding settings : cabac=1 / ref=1 / deblock=1:-1:-1 / analyse=0x3:0x113 / me=hex / subme=2 / psy=1 / psy_rd=1.00:0.15 / mixed_ref=0 / me_range=16 / chroma_me=1 / trellis=0 / 8x8dct=1 / cqm=0 / deadzone=21,11 / fast_pskip=1 / chroma_qp_offset=0 / threads=12 / lookahead_threads=4 / sliced_threads=0 / nr=0 / decimate=1 / interlaced=0 / bluray_compat=0 / constrained_intra=0 / bframes=3 / b_pyramid=2 / b_adapt=1 / b_bias=0 / direct=1 / weightb=1 / open_gop=0 / weightp=1 / keyint=240 / keyint_min=24 / scenecut=40 / intra_refresh=0 / rc_lookahead=10 / rc=2pass / mbtree=1 / bitrate=2400 / ratetol=1.0 / qcomp=0.60 / qpmin=0 / qpmax=69 / qpstep=4 / cplxblur=20.0 / qblur=0.5 / vbv_maxrate=25000 / vbv_bufsize=31250 / nal_hrd=none / filler=0 / ip_ratio=1.40 / aq=1:1.00
Default : Yes
Forced : No
Color range : Limited
Color primaries : BT.709
Transfer characteristics : BT.709
Matrix coefficients : BT.709

Audio #1
ID : 2
Format : AC-3
Format/Info : Audio Coding 3
Commercial name : Dolby Digital
Codec ID : A_AC3
Duration : 54 min 56 s
Bit rate mode : Constant
Bit rate : 640 kb/s
Channel(s) : 6 channels
Channel layout : L R C LFE Ls Rs
Sampling rate : 48.0 kHz
Frame rate : 31.250 FPS (1536 SPF)
Compression mode : Lossy
Stream size : 251 MiB (20%)
Title : Ingles
Language : English
Service kind : Complete Main
Default : Yes
Forced : No

Audio #2
ID : 3
Format : AC-3
Format/Info : Audio Coding 3
Commercial name : Dolby Digital
Codec ID : A_AC3
Duration : 54 min 56 s
Bit rate mode : Constant
Bit rate : 192 kb/s
Channel(s) : 2 channels
Channel layout : L R
Sampling rate : 48.0 kHz
Frame rate : 31.250 FPS (1536 SPF)
Compression mode : Lossy
Stream size : 75.4 MiB (6%)
Title : Latino
Language : Spanish
Service kind : Complete Main
Default : No
Forced : No

Text #1
ID : 4
Format : PGS
Muxing mode : zlib
Codec ID : S_HDMV/PGS
Codec ID/Info : Picture based subtitle format used on BDs/HD-DVDs
Duration : 53 min 1 s
Bit rate : 34.4 kb/s
Count of elements : 1142
Stream size : 13.0 MiB (1%)
Title : Ingles
Language : English
Default : No
Forced : No

Text #2
ID : 5
Format : PGS
Muxing mode : zlib
Codec ID : S_HDMV/PGS
Codec ID/Info : Picture based subtitle format used on BDs/HD-DVDs
Duration : 52 min 34 s
Bit rate : 32.6 kb/s
Count of elements : 954
Stream size : 12.3 MiB (1%)
Title : Latino
Language : Spanish
Default : No
Forced : No
Format : Matroska
Format version : Version 4 / Version 2
File size : 741 MiB
Duration : 54 min 56 s
Overall bit rate : 1 887 kb/s
Movie name : Spartacus Blood And Sand (2010) Dual 720p 01
Encoded date : UTC 2018-02-26 06:07:16 / UTC 2018-02-26T05:35:27Z
Writing application : mkvmerge v15.0.0 ('Duel with the Devil') 64-bit
Writing library : libebml v1.3.5 + libmatroska v1.4.5 / Lavf57.7.2

Video
ID : 1
Format : AVC
Format/Info : Advanced Video Codec
Format profile : High@L3.1
Format settings : CABAC / 4 Ref Frames
Format settings, CABAC : Yes
Format settings, ReFrames : 4 frames
Codec ID : V_MPEG4/ISO/AVC
Duration : 54 min 56 s
Bit rate : 1 500 kb/s
Width : 1 280 pixels
Height : 720 pixels
Display aspect ratio : 16:9
Frame rate mode : Constant
Frame rate : 23.976 (24000/1001) FPS
Color space : YUV
Chroma subsampling : 4:2:0
Bit depth : 8 bits
Scan type : Progressive
Bits/(Pixel*Frame) : 0.068
Stream size : 576 MiB (78%)
Title : Spartacus Blood And Sand (2010) Dual 720p 01
Writing library : x264 core 148 r2708 86b7198
Default : Yes
Forced : No
Color range : Limited
Color primaries : BT.709
Transfer characteristics : BT.709
Matrix coefficients : BT.709
Statistics Tags Issue : mkvmerge v15.0.0 ('Duel with the Devil') 64-bit 2018-02-26 06:07:16 / mkvmerge v15.0.0 ('Duel with the Devil') 64-bit 2018-02-26 06:07:16 / UTC 2018-02-26T05:35:27Z
FromStats_BitRate : 1500564
FromStats_Duration : 00:54:56.293000000
FromStats_FrameCount : 79032
FromStats_StreamSize : 618287573

Audio #1
ID : 2
Format : AC-3
Format/Info : Audio Coding 3
Codec ID : A_AC3
Duration : 54 min 56 s
Bit rate mode : Constant
Bit rate : 192 kb/s
Channel(s) : 2 channels
Channel positions : Front: L R
Sampling rate : 48.0 kHz
Frame rate : 31.250 FPS (1536 SPF)
Bit depth : 16 bits
Compression mode : Lossy
Delay relative to video : -5 ms
Stream size : 75.4 MiB (10%)
Title : Latino
Language : Spanish
Service kind : Complete Main
Default : Yes
Forced : No
Statistics Tags Issue : mkvmerge v15.0.0 ('Duel with the Devil') 64-bit 2018-02-26 06:07:16 / mkvmerge v15.0.0 ('Duel with the Devil') 64-bit 2018-02-26 06:07:16 / UTC 2018-02-26T05:35:27Z
FromStats_BitRate : 192000
FromStats_Duration : 00:54:56.288000000
FromStats_FrameCount : 103009
FromStats_StreamSize : 79110912

Audio #2
ID : 3
Format : AC-3
Format/Info : Audio Coding 3
Codec ID : A_AC3
Duration : 54 min 56 s
Bit rate mode : Constant
Bit rate : 192 kb/s
Channel(s) : 2 channels
Channel positions : Front: L R
Sampling rate : 48.0 kHz
Frame rate : 31.250 FPS (1536 SPF)
Bit depth : 16 bits
Compression mode : Lossy
Delay relative to video : -5 ms
Stream size : 75.4 MiB (10%)
Language : English
Service kind : Complete Main
Default : No
Forced : No
Statistics Tags Issue : mkvmerge v15.0.0 ('Duel with the Devil') 64-bit 2018-02-26 06:07:16 / mkvmerge v15.0.0 ('Duel with the Devil') 64-bit 2018-02-26 06:07:16 / UTC 2018-02-26T05:35:27Z
FromStats_BitRate : 192000
FromStats_Duration : 00:54:56.288000000
FromStats_FrameCount : 103009
FromStats_StreamSize : 79110912

Text
ID : 4
Format : UTF-8
Codec ID : S_TEXT/UTF8
Codec ID/Info : UTF-8 Plain Text
Title : Latino
Language : Spanish
Default : Yes
Forced : No
Statistics Tags Issue : mkvmerge v15.0.0 ('Duel with the Devil') 64-bit 2018-02-26 06:07:16 / mkvmerge v15.0.0 ('Duel with the Devil') 64-bit 2018-02-26 06:07:16 / UTC 2018-02-26T05:35:27Z
FromStats_BitRate : 40
FromStats_Duration : 00:52:34.233000000
FromStats_FrameCount : 476
FromStats_StreamSize : 15807

Reportar Error Visitas: 91