Links Vip MCHD

Contenido privado

Todo aporte con enlaces de GDrive que pida permiso para descargar, se perdió, debido a que Google baneó múltiples cuentas, por lo tanto esos archivos están inaccesibles para descargar

Todos los enlaces rar son intercambiables

Problemas de contraseña o archivo dañado? repara siguiendo esta guía

Big Eyes (2014) Dual BDrip

Format : Matroska
Format version : Version 4
File size : 4.43 GiB
Duration : 1 h 45 min
Overall bit rate : 6 000 kb/s
Movie name : Big Eyes (2014) MiCineHD.com
Encoded date : UTC 2019-08-10 01:44:58
Writing application : mkvmerge v35.0.0 ('All The Love In The World') 64-bit
Writing library : libebml v1.3.9 + libmatroska v1.5.2 / Lavf58.20.100

Video
ID : 1
Format : AVC
Format/Info : Advanced Video Codec
Format profile : High@L4.1
Format settings : CABAC / 4 Ref Frames
Format settings, CABAC : Yes
Format settings, ReFrames : 4 frames
Codec ID : V_MPEG4/ISO/AVC
Duration : 1 h 45 min
Bit rate : 5 000 kb/s
Width : 1 920 pixels
Height : 1 080 pixels
Display aspect ratio : 16:9
Frame rate mode : Constant
Frame rate : 23.976 (24000/1001) FPS
Color space : YUV
Chroma subsampling : 4:2:0
Bit depth : 8 bits
Scan type : Progressive
Bits/(Pixel*Frame) : 0.101
Stream size : 3.61 GiB (81%)
Title : Big Eyes (2014) MiCineHD.com
Writing library : x264 core 157 r2935 545de2f
Encoding settings : cabac=1 / ref=4 / deblock=1:-2:-2 / analyse=0x3:0x133 / me=esa / subme=10 / psy=1 / psy_rd=1.00:0.25 / mixed_ref=1 / me_range=24 / chroma_me=1 / trellis=2 / 8x8dct=1 / cqm=0 / deadzone=6,6 / fast_pskip=1 / chroma_qp_offset=-4 / threads=12 / lookahead_threads=2 / sliced_threads=0 / nr=0 / decimate=0 / interlaced=0 / bluray_compat=0 / constrained_intra=0 / bframes=8 / b_pyramid=2 / b_adapt=2 / b_bias=0 / direct=3 / weightb=1 / open_gop=0 / weightp=2 / keyint=240 / keyint_min=24 / scenecut=40 / intra_refresh=0 / rc_lookahead=60 / rc=abr / mbtree=1 / bitrate=5000 / ratetol=1.0 / qcomp=0.80 / qpmin=0 / qpmax=69 / qpstep=4 / vbv_maxrate=62500 / vbv_bufsize=78125 / nal_hrd=none / filler=0 / ip_ratio=1.10 / aq=1:0.50
Default : Yes
Forced : No
Color range : Limited
Color primaries : BT.709
Transfer characteristics : BT.709
Matrix coefficients : BT.709

Audio #1
ID : 2
Format : AC-3
Format/Info : Audio Coding 3
Commercial name : Dolby Digital
Codec ID : A_AC3
Duration : 1 h 45 min
Bit rate mode : Constant
Bit rate : 448 kb/s
Channel(s) : 6 channels
Channel layout : L R C LFE Ls Rs
Sampling rate : 48.0 kHz
Frame rate : 31.250 FPS (1536 SPF)
Bit depth : 16 bits
Compression mode : Lossy
Delay relative to video : 167 ms
Stream size : 339 MiB (7%)
Title : Latino MiCineHD.com
Language : Spanish
Service kind : Complete Main
Default : Yes
Forced : No

Audio #2
ID : 3
Format : AC-3
Format/Info : Audio Coding 3
Commercial name : Dolby Digital
Codec ID : A_AC3
Duration : 1 h 45 min
Bit rate mode : Constant
Bit rate : 640 kb/s
Channel(s) : 6 channels
Channel layout : L R C LFE Ls Rs
Sampling rate : 48.0 kHz
Frame rate : 31.250 FPS (1536 SPF)
Bit depth : 16 bits
Compression mode : Lossy
Stream size : 484 MiB (11%)
Title : Ingles MiCineHD.com
Language : English
Service kind : Complete Main
Default : No
Forced : No

Text #1
ID : 4
Format : UTF-8
Codec ID : S_TEXT/UTF8
Codec ID/Info : UTF-8 Plain Text
Duration : 1 h 20 min
Bit rate : 0 b/s
Count of elements : 10
Stream size : 196 Bytes (0%)
Title : Forzados SRT MiCineHD.com
Language : Spanish
Default : Yes
Forced : No

Text #2
ID : 5
Format : UTF-8
Codec ID : S_TEXT/UTF8
Codec ID/Info : UTF-8 Plain Text
Duration : 1 h 39 min
Bit rate : 64 b/s
Count of elements : 1217
Stream size : 46.8 KiB (0%)
Title : Latino SRT MiCineHD.com
Language : Spanish
Default : No
Forced : No

Text #3
ID : 6
Format : UTF-8
Codec ID : S_TEXT/UTF8
Codec ID/Info : UTF-8 Plain Text
Duration : 1 h 37 min
Bit rate : 76 b/s
Count of elements : 1275
Stream size : 54.5 KiB (0%)
Title : Ingles SRT MiCineHD.com
Language : English
Default : No
Forced : No

Text #4
ID : 7
Format : PGS
Muxing mode : zlib
Codec ID : S_HDMV/PGS
Codec ID/Info : Picture based subtitle format used on BDs/HD-DVDs
Duration : 1 h 20 min
Bit rate : 213 b/s
Count of elements : 20
Stream size : 126 KiB (0%)
Title : Forzados PGS MiCineHD.com
Language : Spanish
Default : No
Forced : No

Text #5
ID : 8
Format : PGS
Muxing mode : zlib
Codec ID : S_HDMV/PGS
Codec ID/Info : Picture based subtitle format used on BDs/HD-DVDs
Duration : 1 h 39 min
Bit rate : 37.5 kb/s
Count of elements : 2436
Stream size : 26.6 MiB (1%)
Title : Latino PGS MiCineHD.com
Language : Spanish
Default : No
Forced : No

Text #6
ID : 9
Format : PGS
Muxing mode : zlib
Codec ID : S_HDMV/PGS
Codec ID/Info : Picture based subtitle format used on BDs/HD-DVDs
Duration : 1 h 37 min
Bit rate : 40.1 kb/s
Count of elements : 2550
Stream size : 28.1 MiB (1%)
Title : Ingles PGS MiCineHD.com
Language : English
Default : No
Forced : No

Menu
00:00:00.000 : :Chapter 1
00:06:44.446 : :Chapter 2
00:14:34.624 : :Chapter 3
00:21:45.805 : :Chapter 4
00:27:12.381 : :Chapter 5
00:35:10.442 : :Chapter 6
00:40:54.494 : :Chapter 7
00:46:49.724 : :Chapter 8
00:52:36.779 : :Chapter 9
00:58:04.648 : :Chapter 10
01:03:45.822 : :Chapter 11
01:10:49.746 : :Chapter 12
01:17:40.406 : :Chapter 13
01:26:03.617 : :Chapter 14
01:32:05.729 : :Chapter 15
01:39:00.685 : :Chapter 16
Format : Matroska
Format version : Version 4
File size : 1.57 GiB
Duration : 1 h 45 min
Overall bit rate : 2 127 kb/s
Movie name : Big Eyes (2014) MiCineHD.com
Encoded date : UTC 2019-08-10 05:00:41
Writing application : mkvmerge v35.0.0 ('All The Love In The World') 64-bit
Writing library : libebml v1.3.9 + libmatroska v1.5.2 / Lavf58.20.100

Video
ID : 1
Format : AVC
Format/Info : Advanced Video Codec
Format profile : High@L4.1
Format settings : CABAC / 5 Ref Frames
Format settings, CABAC : Yes
Format settings, ReFrames : 5 frames
Codec ID : V_MPEG4/ISO/AVC
Duration : 1 h 45 min
Bit rate : 1 500 kb/s
Width : 1 280 pixels
Height : 720 pixels
Display aspect ratio : 16:9
Frame rate mode : Constant
Frame rate : 23.976 (24000/1001) FPS
Color space : YUV
Chroma subsampling : 4:2:0
Bit depth : 8 bits
Scan type : Progressive
Bits/(Pixel*Frame) : 0.068
Stream size : 1.10 GiB (70%)
Title : Big Eyes (2014) MiCineHD.com
Writing library : x264 core 157 r2935 545de2f
Encoding settings : cabac=1 / ref=5 / deblock=1:-2:-2 / analyse=0x3:0x113 / me=hex / subme=8 / psy=1 / psy_rd=1.00:0.25 / mixed_ref=1 / me_range=16 / chroma_me=1 / trellis=2 / 8x8dct=1 / cqm=0 / deadzone=6,6 / fast_pskip=1 / chroma_qp_offset=-4 / threads=12 / lookahead_threads=2 / sliced_threads=0 / nr=0 / decimate=0 / interlaced=0 / bluray_compat=0 / constrained_intra=0 / bframes=3 / b_pyramid=2 / b_adapt=1 / b_bias=0 / direct=3 / weightb=1 / open_gop=0 / weightp=2 / keyint=240 / keyint_min=24 / scenecut=40 / intra_refresh=0 / rc_lookahead=50 / rc=abr / mbtree=1 / bitrate=1500 / ratetol=1.0 / qcomp=0.80 / qpmin=0 / qpmax=69 / qpstep=4 / vbv_maxrate=62500 / vbv_bufsize=78125 / nal_hrd=none / filler=0 / ip_ratio=1.10 / aq=1:0.50
Default : Yes
Forced : No
Color range : Limited
Color primaries : BT.709
Transfer characteristics : BT.709
Matrix coefficients : BT.709

Audio #1
ID : 2
Format : AC-3
Format/Info : Audio Coding 3
Commercial name : Dolby Digital
Codec ID : A_AC3
Duration : 1 h 45 min
Bit rate mode : Constant
Bit rate : 320 kb/s
Channel(s) : 6 channels
Channel layout : L R C LFE Ls Rs
Sampling rate : 48.0 kHz
Frame rate : 31.250 FPS (1536 SPF)
Bit depth : 16 bits
Compression mode : Lossy
Delay relative to video : 162 ms
Stream size : 242 MiB (15%)
Title : Latino MiCineHD.com
Language : Spanish
Service kind : Complete Main
Default : Yes
Forced : No

Audio #2
ID : 3
Format : AC-3
Format/Info : Audio Coding 3
Commercial name : Dolby Digital
Codec ID : A_AC3
Duration : 1 h 45 min
Bit rate mode : Constant
Bit rate : 320 kb/s
Channel(s) : 6 channels
Channel layout : L R C LFE Ls Rs
Sampling rate : 48.0 kHz
Frame rate : 31.250 FPS (1536 SPF)
Bit depth : 16 bits
Compression mode : Lossy
Delay relative to video : -5 ms
Stream size : 242 MiB (15%)
Title : Ingles MiCineHD.com
Language : English
Service kind : Complete Main
Default : No
Forced : No

Text #1
ID : 4
Format : UTF-8
Codec ID : S_TEXT/UTF8
Codec ID/Info : UTF-8 Plain Text
Duration : 1 h 20 min
Bit rate : 0 b/s
Count of elements : 10
Stream size : 196 Bytes (0%)
Title : Forzados SRT MiCineHD.com
Language : Spanish
Default : Yes
Forced : No

Text #2
ID : 5
Format : UTF-8
Codec ID : S_TEXT/UTF8
Codec ID/Info : UTF-8 Plain Text
Duration : 1 h 39 min
Bit rate : 64 b/s
Count of elements : 1217
Stream size : 46.8 KiB (0%)
Title : Latino SRT MiCineHD.com
Language : Spanish
Default : No
Forced : No

Text #3
ID : 6
Format : UTF-8
Codec ID : S_TEXT/UTF8
Codec ID/Info : UTF-8 Plain Text
Duration : 1 h 37 min
Bit rate : 76 b/s
Count of elements : 1275
Stream size : 54.5 KiB (0%)
Title : Ingles SRT MiCineHD.com
Language : English
Default : No
Forced : No

Menu
00:00:00.000 : :Chapter 1
00:06:44.446 : :Chapter 2
00:14:34.624 : :Chapter 3
00:21:45.805 : :Chapter 4
00:27:12.381 : :Chapter 5
00:35:10.442 : :Chapter 6
00:40:54.494 : :Chapter 7
00:46:49.724 : :Chapter 8
00:52:36.779 : :Chapter 9
00:58:04.648 : :Chapter 10
01:03:45.822 : :Chapter 11
01:10:49.746 : :Chapter 12
01:17:40.406 : :Chapter 13
01:26:03.617 : :Chapter 14
01:32:05.729 : :Chapter 15
01:39:00.685 : :Chapter 16
Format : Matroska
Format version : Version 4
File size : 23.0 GiB
Duration : 1 h 45 min
Overall bit rate mode : Variable
Overall bit rate : 31.2 Mb/s
Movie name : Big Eyes (2014) MiCineHD.com
Encoded date : UTC 2019-08-09 02:42:40
Writing application : mkvmerge v35.0.0 ('All The Love In The World') 64-bit
Writing library : libebml v1.3.9 + libmatroska v1.5.2

Video
ID : 1
Format : AVC
Format/Info : Advanced Video Codec
Format profile : High@L4.1
Format settings : CABAC / 2 Ref Frames
Format settings, CABAC : Yes
Format settings, ReFrames : 2 frames
Codec ID : V_MPEG4/ISO/AVC
Duration : 1 h 45 min
Bit rate mode : Variable
Bit rate : 26.6 Mb/s
Width : 1 920 pixels
Height : 1 080 pixels
Display aspect ratio : 16:9
Frame rate mode : Constant
Frame rate : 23.976 (24000/1001) FPS
Color space : YUV
Chroma subsampling : 4:2:0
Bit depth : 8 bits
Scan type : Progressive
Bits/(Pixel*Frame) : 0.535
Stream size : 19.6 GiB (85%)
Title : Big Eyes (2014) MiCineHD.com
Default : Yes
Forced : No

Audio #1
ID : 2
Format : AC-3
Format/Info : Audio Coding 3
Commercial name : Dolby Digital
Codec ID : A_AC3
Duration : 1 h 45 min
Bit rate mode : Constant
Bit rate : 448 kb/s
Channel(s) : 6 channels
Channel layout : L R C LFE Ls Rs
Sampling rate : 48.0 kHz
Frame rate : 31.250 FPS (1536 SPF)
Bit depth : 16 bits
Compression mode : Lossy
Delay relative to video : 167 ms
Stream size : 339 MiB (1%)
Title : Latino AC3 5.1 MiCineHD.com
Language : Spanish
Service kind : Complete Main
Default : Yes
Forced : No

Audio #2
ID : 3
Format : AC-3
Format/Info : Audio Coding 3
Commercial name : Dolby Digital
Codec ID : A_AC3
Duration : 1 h 45 min
Bit rate mode : Constant
Bit rate : 640 kb/s
Channel(s) : 6 channels
Channel layout : L R C LFE Ls Rs
Sampling rate : 48.0 kHz
Frame rate : 31.250 FPS (1536 SPF)
Bit depth : 16 bits
Compression mode : Lossy
Stream size : 484 MiB (2%)
Title : Ingles AC3 5.1 MiCineHD.com
Language : English
Service kind : Complete Main
Default : No
Forced : No

Audio #3
ID : 4
Format : DTS XLL
Format/Info : Digital Theater Systems
Commercial name : DTS-HD Master Audio
Codec ID : A_DTS
Duration : 1 h 45 min
Bit rate mode : Variable
Bit rate : 3 461 kb/s
Channel(s) : 6 channels
Channel layout : C L R Ls Rs LFE
Sampling rate : 48.0 kHz
Frame rate : 93.750 FPS (512 SPF)
Bit depth : 24 bits
Compression mode : Lossless
Stream size : 2.56 GiB (11%)
Title : Ingles DTS-MA 5.1 MiCineHD.com
Language : English
Default : No
Forced : No

Text #1
ID : 5
Format : UTF-8
Codec ID : S_TEXT/UTF8
Codec ID/Info : UTF-8 Plain Text
Duration : 1 h 20 min
Bit rate : 0 b/s
Count of elements : 10
Stream size : 196 Bytes (0%)
Title : Forzados SRT MiCineHD.com
Language : Spanish
Default : No
Forced : No

Text #2
ID : 6
Format : UTF-8
Codec ID : S_TEXT/UTF8
Codec ID/Info : UTF-8 Plain Text
Duration : 1 h 39 min
Bit rate : 64 b/s
Count of elements : 1217
Stream size : 46.8 KiB (0%)
Title : Latino SRT MiCineHD.com
Language : Spanish
Default : No
Forced : No

Text #3
ID : 7
Format : UTF-8
Codec ID : S_TEXT/UTF8
Codec ID/Info : UTF-8 Plain Text
Duration : 1 h 37 min
Bit rate : 76 b/s
Count of elements : 1275
Stream size : 54.5 KiB (0%)
Title : Ingles SRT MiCineHD.com
Language : English
Default : No
Forced : No

Text #4
ID : 8
Format : PGS
Muxing mode : zlib
Codec ID : S_HDMV/PGS
Codec ID/Info : Picture based subtitle format used on BDs/HD-DVDs
Duration : 1 h 39 min
Bit rate : 37.5 kb/s
Count of elements : 2436
Stream size : 26.6 MiB (0%)
Title : Forzados PGS MiCineHD.com
Language : Spanish
Default : Yes
Forced : No

Text #5
ID : 9
Format : PGS
Muxing mode : zlib
Codec ID : S_HDMV/PGS
Codec ID/Info : Picture based subtitle format used on BDs/HD-DVDs
Duration : 1 h 20 min
Bit rate : 213 b/s
Count of elements : 20
Stream size : 126 KiB (0%)
Title : Latino PGS MiCineHD.com
Language : Spanish
Default : No
Forced : No

Text #6
ID : 10
Format : PGS
Muxing mode : zlib
Codec ID : S_HDMV/PGS
Codec ID/Info : Picture based subtitle format used on BDs/HD-DVDs
Duration : 1 h 37 min
Bit rate : 40.1 kb/s
Count of elements : 2550
Stream size : 28.1 MiB (0%)
Title : Ingles PGS MiCineHD.com
Language : English
Default : No
Forced : No

Menu
00:00:00.000 : :Chapter 01
00:06:44.445 : :Chapter 02
00:14:34.540 : :Chapter 03
00:21:45.721 : :Chapter 04
00:27:12.380 : :Chapter 05
00:35:10.358 : :Chapter 06
00:40:54.410 : :Chapter 07
00:46:49.640 : :Chapter 08
00:52:36.778 : :Chapter 09
00:58:04.647 : :Chapter 10
01:03:45.822 : :Chapter 11
01:10:49.745 : :Chapter 12
01:17:40.322 : :Chapter 13
01:26:03.533 : :Chapter 14
01:32:05.728 : :Chapter 15
01:39:00.643 : :Chapter 16

Reportar Error Visitas: 48