Links Vip MCHD

Contenido Exclusivo

Todo aporte con enlaces de GDrive que pida permiso para descargar, se perdió, debido a que Google baneó múltiples cuentas, por lo tanto esos archivos están inaccesibles para descargar

Todos los enlaces rar son intercambiables

Problemas de contraseña o archivo dañado? repara siguiendo esta guía

Judge Dredd (1995) Dual BDrip

Complete name : Judge Dredd (1995) Dual 1080p BDrip.mkv
Format : Matroska
Format version : Version 4
File size : 4.13 GiB
Duration : 1 h 36 min
Overall bit rate : 6 155 kb/s
Movie name : Judge Dredd (1995) MiCineHD.com
Encoded date : UTC 2019-06-18 05:31:23
Writing application : mkvmerge v34.0.0 ('Sight and Seen') 64-bit
Writing library : libebml v1.3.7 + libmatroska v1.5.0 / Lavf58.20.100

Video
ID : 1
Format : AVC
Format/Info : Advanced Video Codec
Format profile : High@L4.1
Format settings : CABAC / 4 Ref Frames
Format settings, CABAC : Yes
Format settings, ReFrames : 4 frames
Codec ID : V_MPEG4/ISO/AVC
Duration : 1 h 36 min
Bit rate : 5 300 kb/s
Width : 1 920 pixels
Height : 1 080 pixels
Display aspect ratio : 16:9
Frame rate mode : Constant
Frame rate : 23.976 (24000/1001) FPS
Color space : YUV
Chroma subsampling : 4:2:0
Bit depth : 8 bits
Scan type : Progressive
Bits/(Pixel*Frame) : 0.107
Stream size : 3.47 GiB (84%)
Title : Judge Dredd (1995) MiCineHD.com
Writing library : x264 core 157 r2935 545de2f
Encoding settings : cabac=1 / ref=4 / deblock=1:-2:-2 / analyse=0x3:0x133 / me=esa / subme=10 / psy=1 / psy_rd=1.00:0.25 / mixed_ref=1 / me_range=24 / chroma_me=1 / trellis=2 / 8x8dct=1 / cqm=0 / deadzone=6,6 / fast_pskip=1 / chroma_qp_offset=-4 / threads=12 / lookahead_threads=2 / sliced_threads=0 / nr=0 / decimate=0 / interlaced=0 / bluray_compat=0 / constrained_intra=0 / bframes=8 / b_pyramid=2 / b_adapt=2 / b_bias=0 / direct=3 / weightb=1 / open_gop=0 / weightp=2 / keyint=240 / keyint_min=24 / scenecut=40 / intra_refresh=0 / rc_lookahead=60 / rc=abr / mbtree=1 / bitrate=5300 / ratetol=1.0 / qcomp=0.80 / qpmin=0 / qpmax=69 / qpstep=4 / vbv_maxrate=62500 / vbv_bufsize=78125 / nal_hrd=none / filler=0 / ip_ratio=1.10 / aq=1:0.50
Default : Yes
Forced : No
Color range : Limited
Color primaries : BT.709
Transfer characteristics : BT.709
Matrix coefficients : BT.709

Audio #1
ID : 2
Format : AC-3
Format/Info : Audio Coding 3
Commercial name : Dolby Digital
Codec ID : A_AC3
Duration : 1 h 36 min
Bit rate mode : Constant
Bit rate : 320 kb/s
Channel(s) : 2 channels
Channel layout : L R
Sampling rate : 48.0 kHz
Frame rate : 31.250 FPS (1536 SPF)
Bit depth : 16 bits
Compression mode : Lossy
Stream size : 220 MiB (5%)
Title : Latino MiCineHD.com
Language : Spanish
Service kind : Complete Main
Default : Yes
Forced : No

Audio #2
ID : 3
Format : AC-3
Format/Info : Audio Coding 3
Commercial name : Dolby Digital
Codec ID : A_AC3
Duration : 1 h 36 min
Bit rate mode : Constant
Bit rate : 640 kb/s
Channel(s) : 6 channels
Channel layout : L R C LFE Ls Rs
Sampling rate : 48.0 kHz
Frame rate : 31.250 FPS (1536 SPF)
Bit depth : 16 bits
Compression mode : Lossy
Stream size : 440 MiB (10%)
Title : Ingles MiCineHD.com
Language : English
Service kind : Complete Main
Default : No
Forced : No

Text #1
ID : 4
Format : UTF-8
Codec ID : S_TEXT/UTF8
Codec ID/Info : UTF-8 Plain Text
Duration : 1 h 28 min
Bit rate : 48 b/s
Count of elements : 1105
Stream size : 31.7 KiB (0%)
Title : Latino SRT MiCineHD.com
Language : English
Default : Yes
Forced : No

Text #2
ID : 5
Format : UTF-8
Codec ID : S_TEXT/UTF8
Codec ID/Info : UTF-8 Plain Text
Duration : 1 h 34 min
Bit rate : 59 b/s
Count of elements : 1315
Stream size : 41.0 KiB (0%)
Title : Ingles SRT MiCineHD.com
Language : English
Default : No
Forced : No

Text #3
ID : 6
Format : PGS
Muxing mode : zlib
Codec ID : S_HDMV/PGS
Codec ID/Info : Picture based subtitle format used on BDs/HD-DVDs
Duration : 1 h 28 min
Bit rate : 30.7 kb/s
Count of elements : 2218
Stream size : 19.4 MiB (0%)
Title : Latino PGS MiCineHD.com
Language : Spanish
Default : No
Forced : No

Text #4
ID : 7
Format : PGS
Muxing mode : zlib
Codec ID : S_HDMV/PGS
Codec ID/Info : Picture based subtitle format used on BDs/HD-DVDs
Duration : 1 h 34 min
Bit rate : 38.8 kb/s
Count of elements : 2650
Stream size : 26.2 MiB (1%)
Title : Ingles PGS MiCineHD.com
Language : English
Default : No
Forced : No

Menu
00:00:00.000 : :Chapter 1
00:06:11.705 : :Chapter 2
00:15:59.834 : :Chapter 3
00:25:25.441 : :Chapter 4
00:31:53.662 : :Chapter 5
00:43:57.677 : :Chapter 6
00:48:17.061 : :Chapter 7
00:56:22.045 : :Chapter 8
01:05:21.584 : :Chapter 9
01:09:03.765 : :Chapter 10
01:10:57.420 : :Chapter 11
01:14:03.481 : :Chapter 12
01:17:26.016 : :Chapter 13
01:20:28.866 : :Chapter 14
01:26:01.156 : :Chapter 15
01:30:20.707 : :Chapter 16
Complete name : Judge Dredd (1995) Dual 720p BDrip.mkv
Format : Matroska
Format version : Version 4
File size : 1.38 GiB
Duration : 1 h 36 min
Overall bit rate : 2 064 kb/s
Movie name : Judge Dredd (1995) MiCineHD.com
Encoded date : UTC 2019-06-18 20:05:57
Writing application : mkvmerge v34.0.0 ('Sight and Seen') 64-bit
Writing library : libebml v1.3.7 + libmatroska v1.5.0 / Lavf58.20.100

Video
ID : 1
Format : AVC
Format/Info : Advanced Video Codec
Format profile : High@L4.1
Format settings : CABAC / 8 Ref Frames
Format settings, CABAC : Yes
Format settings, ReFrames : 8 frames
Codec ID : V_MPEG4/ISO/AVC
Duration : 1 h 36 min
Bit rate : 1 500 kb/s
Width : 1 280 pixels
Height : 720 pixels
Display aspect ratio : 16:9
Frame rate mode : Constant
Frame rate : 23.976 (24000/1001) FPS
Color space : YUV
Chroma subsampling : 4:2:0
Bit depth : 8 bits
Scan type : Progressive
Bits/(Pixel*Frame) : 0.068
Stream size : 1 021 MiB (72%)
Title : Judge Dredd (1995) MiCineHD.com
Writing library : x264 core 157 r2935 545de2f
Encoding settings : cabac=1 / ref=8 / deblock=1:-2:-2 / analyse=0x3:0x133 / me=umh / subme=9 / psy=1 / psy_rd=1.00:0.25 / mixed_ref=1 / me_range=16 / chroma_me=1 / trellis=2 / 8x8dct=1 / cqm=0 / deadzone=6,6 / fast_pskip=1 / chroma_qp_offset=-4 / threads=12 / lookahead_threads=1 / sliced_threads=0 / nr=0 / decimate=0 / interlaced=0 / bluray_compat=0 / constrained_intra=0 / bframes=3 / b_pyramid=2 / b_adapt=2 / b_bias=0 / direct=3 / weightb=1 / open_gop=0 / weightp=2 / keyint=240 / keyint_min=24 / scenecut=40 / intra_refresh=0 / rc_lookahead=60 / rc=abr / mbtree=1 / bitrate=1500 / ratetol=1.0 / qcomp=0.80 / qpmin=0 / qpmax=69 / qpstep=4 / vbv_maxrate=62500 / vbv_bufsize=78125 / nal_hrd=none / filler=0 / ip_ratio=1.10 / aq=1:0.50
Default : Yes
Forced : No
Color range : Limited
Color primaries : BT.709
Transfer characteristics : BT.709
Matrix coefficients : BT.709

Audio #1
ID : 2
Format : AC-3
Format/Info : Audio Coding 3
Commercial name : Dolby Digital
Codec ID : A_AC3
Duration : 1 h 36 min
Bit rate mode : Constant
Bit rate : 256 kb/s
Channel(s) : 2 channels
Channel layout : L R
Sampling rate : 48.0 kHz
Frame rate : 31.250 FPS (1536 SPF)
Bit depth : 16 bits
Compression mode : Lossy
Delay relative to video : -5 ms
Stream size : 176 MiB (12%)
Title : Latino MiCineHD.com
Language : Spanish
Service kind : Complete Main
Default : Yes
Forced : No

Audio #2
ID : 3
Format : AC-3
Format/Info : Audio Coding 3
Commercial name : Dolby Digital
Codec ID : A_AC3
Duration : 1 h 36 min
Bit rate mode : Constant
Bit rate : 320 kb/s
Channel(s) : 6 channels
Channel layout : L R C LFE Ls Rs
Sampling rate : 48.0 kHz
Frame rate : 31.250 FPS (1536 SPF)
Bit depth : 16 bits
Compression mode : Lossy
Delay relative to video : -5 ms
Stream size : 220 MiB (16%)
Title : Ingles MiCineHD.com
Language : English
Service kind : Complete Main
Default : No
Forced : No

Text #1
ID : 4
Format : UTF-8
Codec ID : S_TEXT/UTF8
Codec ID/Info : UTF-8 Plain Text
Duration : 1 h 28 min
Bit rate : 48 b/s
Count of elements : 1105
Stream size : 31.7 KiB (0%)
Title : Latino MiCineHD.com
Language : Spanish
Default : Yes
Forced : No

Text #2
ID : 5
Format : UTF-8
Codec ID : S_TEXT/UTF8
Codec ID/Info : UTF-8 Plain Text
Duration : 1 h 34 min
Bit rate : 59 b/s
Count of elements : 1315
Stream size : 41.0 KiB (0%)
Title : Ingles MiCineHD.com
Language : English
Default : No
Forced : No

Menu
00:00:00.000 : :Chapter 1
00:06:11.705 : :Chapter 2
00:15:59.834 : :Chapter 3
00:25:25.441 : :Chapter 4
00:31:53.662 : :Chapter 5
00:43:57.677 : :Chapter 6
00:48:17.061 : :Chapter 7
00:56:22.045 : :Chapter 8
01:05:21.584 : :Chapter 9
01:09:03.765 : :Chapter 10
01:10:57.420 : :Chapter 11
01:14:03.481 : :Chapter 12
01:17:26.016 : :Chapter 13
01:20:28.866 : :Chapter 14
01:26:01.156 : :Chapter 15
01:30:20.707 : :Chapter 16

Reportar Error Visitas: 85