Links Vip MCHD

Contenido Exclusivo

Todo aporte con enlaces de GDrive que pida permiso para descargar, se perdió, debido a que Google baneó múltiples cuentas, por lo tanto esos archivos están inaccesibles para descargar

Todos los enlaces rar son intercambiables

Problemas de contraseña o archivo dañado? repara siguiendo esta guía

Nowhere To Run (1993) Dual 1080p BRrip

Complete name : Nowhere To Run (1993) Dual 1080p BRrip.mkv
Format : Matroska
Format version : Version 4 / Version 2
File size : 3.81 GiB
Duration : 1 h 34 min
Overall bit rate : 5 784 kb/s
Movie name : Nowhere To Run (1993) MiCineHD
Encoded date : UTC 2019-01-27 21:01:57 / UTC 2019-01-25T08:16:52Z
Writing application : mkvmerge v30.1.0 ('Forever And More') 64-bit
Writing library : libebml v1.3.6 + libmatroska v1.4.9 / Lavf57.7.2

Video
ID : 1
Format : AVC
Format/Info : Advanced Video Codec
Format profile : High@L4.1
Format settings : CABAC / 4 Ref Frames
Format settings, CABAC : Yes
Format settings, ReFrames : 4 frames
Codec ID : V_MPEG4/ISO/AVC
Duration : 1 h 34 min
Bit rate : 5 500 kb/s
Width : 1 920 pixels
Height : 1 080 pixels
Display aspect ratio : 16:9
Frame rate mode : Constant
Frame rate : 23.976 (24000/1001) FPS
Color space : YUV
Chroma subsampling : 4:2:0
Bit depth : 8 bits
Scan type : Progressive
Bits/(Pixel*Frame) : 0.111
Stream size : 3.48 GiB (91%)
Title : Nowhere To Run (1993) MiCineHD
Writing library : x264 core 148 r2708 86b7198
Encoding settings : cabac=1 / ref=4 / deblock=1:-2:-2 / analyse=0x3:0x133 / me=esa / subme=9 / psy=1 / psy_rd=1.00:0.25 / mixed_ref=1 / me_range=16 / chroma_me=1 / trellis=2 / 8x8dct=1 / cqm=0 / deadzone=6,6 / fast_pskip=1 / chroma_qp_offset=-4 / threads=12 / lookahead_threads=2 / sliced_threads=0 / nr=0 / decimate=0 / interlaced=0 / bluray_compat=0 / constrained_intra=0 / bframes=8 / b_pyramid=2 / b_adapt=2 / b_bias=0 / direct=3 / weightb=1 / open_gop=0 / weightp=2 / keyint=240 / keyint_min=24 / scenecut=40 / intra_refresh=0 / rc_lookahead=60 / rc=abr / mbtree=1 / bitrate=5500 / ratetol=1.0 / qcomp=0.80 / qpmin=0 / qpmax=69 / qpstep=4 / vbv_maxrate=62500 / vbv_bufsize=78125 / nal_hrd=none / filler=0 / ip_ratio=1.10 / aq=1:0.50
Default : Yes
Forced : No
Color range : Limited
Color primaries : BT.709
Transfer characteristics : BT.709
Matrix coefficients : BT.709
Statistics Tags Issue : mkvmerge v30.1.0 ('Forever And More') 64-bit 2019-01-27 21:01:57 / mkvmerge v30.1.0 ('Forever And More') 64-bit 2019-01-27 21:01:57 / UTC 2019-01-25T08:16:52Z
FromStats_BitRate : 5380550
FromStats_Duration : 01:34:19.654000000
FromStats_FrameCount : 135696
FromStats_StreamSize : 3806507024

Audio #1
ID : 2
Format : AC-3
Format/Info : Audio Coding 3
Codec ID : A_AC3
Duration : 1 h 34 min
Bit rate mode : Constant
Bit rate : 192 kb/s
Channel(s) : 2 channels
Channel positions : Front: L R
Sampling rate : 48.0 kHz
Frame rate : 31.250 FPS (1536 SPF)
Bit depth : 16 bits
Compression mode : Lossy
Stream size : 130 MiB (3%)
Title : Latino
Language : Spanish
Service kind : Complete Main
Default : Yes
Forced : No
Statistics Tags Issue : mkvmerge v30.1.0 ('Forever And More') 64-bit 2019-01-27 21:01:57 / mkvmerge v30.1.0 ('Forever And More') 64-bit 2019-01-27 21:01:57 / UTC 2019-01-25T08:16:52Z
FromStats_BitRate : 192000
FromStats_Duration : 01:34:19.680000000
FromStats_FrameCount : 176865
FromStats_StreamSize : 135832320

Audio #2
ID : 3
Format : AC-3
Format/Info : Audio Coding 3
Codec ID : A_AC3
Duration : 1 h 34 min
Bit rate mode : Constant
Bit rate : 192 kb/s
Channel(s) : 2 channels
Channel positions : Front: L R
Sampling rate : 48.0 kHz
Frame rate : 31.250 FPS (1536 SPF)
Bit depth : 16 bits
Compression mode : Lossy
Stream size : 130 MiB (3%)
Title : Ingles
Language : English
Service kind : Complete Main
Default : No
Forced : No
Statistics Tags Issue : mkvmerge v30.1.0 ('Forever And More') 64-bit 2019-01-27 21:01:57 / mkvmerge v30.1.0 ('Forever And More') 64-bit 2019-01-27 21:01:57 / UTC 2019-01-25T08:16:52Z
FromStats_BitRate : 192000
FromStats_Duration : 01:34:19.680000000
FromStats_FrameCount : 176865
FromStats_StreamSize : 135832320

Text #1
ID : 4
Format : PGS
Muxing mode : zlib
Codec ID : S_HDMV/PGS
Codec ID/Info : Picture based subtitle format used on BDs/HD-DVDs
Title : Latino PGS
Language : Spanish
Default : Yes
Forced : No
Statistics Tags Issue : mkvmerge v30.1.0 ('Forever And More') 64-bit 2019-01-27 21:01:57 / mkvmerge v30.1.0 ('Forever And More') 64-bit 2019-01-27 21:01:57 / UTC 2019-01-25T08:16:52Z
FromStats_BitRate : 20426
FromStats_Duration : 01:30:30.801000000
FromStats_FrameCount : 1499
FromStats_StreamSize : 13866202

Text #2
ID : 5
Format : PGS
Muxing mode : zlib
Codec ID : S_HDMV/PGS
Codec ID/Info : Picture based subtitle format used on BDs/HD-DVDs
Title : Ingles PGS
Language : English
Default : No
Forced : No
Statistics Tags Issue : mkvmerge v30.1.0 ('Forever And More') 64-bit 2019-01-27 21:01:57 / mkvmerge v30.1.0 ('Forever And More') 64-bit 2019-01-27 21:01:57 / UTC 2019-01-25T08:16:52Z
FromStats_BitRate : 22237
FromStats_Duration : 01:26:59.130000000
FromStats_FrameCount : 1504
FromStats_StreamSize : 14507456

Text #3
ID : 6
Format : PGS
Muxing mode : zlib
Codec ID : S_HDMV/PGS
Codec ID/Info : Picture based subtitle format used on BDs/HD-DVDs
Title : Ingles SDH PGS
Language : English
Default : No
Forced : No
Statistics Tags Issue : mkvmerge v30.1.0 ('Forever And More') 64-bit 2019-01-27 21:01:57 / mkvmerge v30.1.0 ('Forever And More') 64-bit 2019-01-27 21:01:57 / UTC 2019-01-25T08:16:52Z
FromStats_BitRate : 21128
FromStats_Duration : 01:32:02.392000000
FromStats_FrameCount : 2018
FromStats_StreamSize : 14584662

Text #4
ID : 7
Format : UTF-8
Codec ID : S_TEXT/UTF8
Codec ID/Info : UTF-8 Plain Text
Title : Latino SRT
Language : Spanish
Default : No
Forced : No
Statistics Tags Issue : mkvmerge v30.1.0 ('Forever And More') 64-bit 2019-01-27 21:01:57 / mkvmerge v30.1.0 ('Forever And More') 64-bit 2019-01-27 21:01:57 / UTC 2019-01-25T08:16:52Z
FromStats_BitRate : 32
FromStats_Duration : 01:30:30.674000000
FromStats_FrameCount : 742
FromStats_StreamSize : 22181

Text #5
ID : 8
Format : UTF-8
Codec ID : S_TEXT/UTF8
Codec ID/Info : UTF-8 Plain Text
Title : Ingles SRT
Language : English
Default : No
Forced : No
Statistics Tags Issue : mkvmerge v30.1.0 ('Forever And More') 64-bit 2019-01-27 21:01:57 / mkvmerge v30.1.0 ('Forever And More') 64-bit 2019-01-27 21:01:57 / UTC 2019-01-25T08:16:52Z
FromStats_BitRate : 33
FromStats_Duration : 01:26:59.051000000
FromStats_FrameCount : 759
FromStats_StreamSize : 22114

Menu
00:00:00.000 : :Chapter 1
00:06:16.543 : :Chapter 2
00:11:23.141 : :Chapter 3
00:20:33.858 : :Chapter 4
00:26:13.614 : :Chapter 5
00:31:30.889 : :Chapter 6
00:38:51.663 : :Chapter 7
00:46:41.257 : :Chapter 8
00:48:45.923 : :Chapter 9
00:54:19.256 : :Chapter 10
01:00:10.232 : :Chapter 11
01:06:52.050 : :Chapter 12
01:12:15.081 : :Chapter 13
01:19:34.270 : :Chapter 14
01:24:00.202 : :Chapter 15
01:27:21.737 : :Chapter 16

Reportar Error Visitas: 56