Links Vip MCHD

Contenido privado

Todo aporte con enlaces de GDrive que pida permiso para descargar, se perdió, debido a que Google baneó múltiples cuentas, por lo tanto esos archivos están inaccesibles para descargar

Todos los enlaces rar son intercambiables

Problemas de contraseña o archivo dañado? repara siguiendo esta guía

Raw Deal (1986) Trial BRrip

Complete name : Raw Deal (1986) Trial 1080p BRrip.mkv
Format : Matroska
Format version : Version 4 / Version 2
File size : 5.23 GiB
Duration : 1 h 45 min
Overall bit rate : 7 095 kb/s
Movie name : Raw Deal (1986) MiCineHD
Encoded date : UTC 2019-01-26 04:55:07 / UTC 2019-01-25T13:15:32Z
Writing application : mkvmerge v30.1.0 ('Forever And More') 64-bit
Writing library : libebml v1.3.6 + libmatroska v1.4.9 / Lavf57.7.2

Video
ID : 1
Format : AVC
Format/Info : Advanced Video Codec
Format profile : High@L4.1
Format settings : CABAC / 4 Ref Frames
Format settings, CABAC : Yes
Format settings, ReFrames : 4 frames
Codec ID : V_MPEG4/ISO/AVC
Duration : 1 h 45 min
Bit rate : 5 200 kb/s
Width : 1 920 pixels
Height : 1 080 pixels
Display aspect ratio : 16:9
Frame rate mode : Constant
Frame rate : 24.000 FPS
Color space : YUV
Chroma subsampling : 4:2:0
Bit depth : 8 bits
Scan type : Progressive
Bits/(Pixel*Frame) : 0.104
Stream size : 3.71 GiB (71%)
Title : Raw Deal (1986) MiCineHD
Writing library : x264 core 148 r2708 86b7198
Encoding settings : cabac=1 / ref=4 / deblock=1:-2:-2 / analyse=0x3:0x133 / me=esa / subme=9 / psy=1 / psy_rd=1.00:0.25 / mixed_ref=1 / me_range=16 / chroma_me=1 / trellis=2 / 8x8dct=1 / cqm=0 / deadzone=6,6 / fast_pskip=1 / chroma_qp_offset=-4 / threads=12 / lookahead_threads=2 / sliced_threads=0 / nr=0 / decimate=0 / interlaced=0 / bluray_compat=0 / constrained_intra=0 / bframes=8 / b_pyramid=2 / b_adapt=2 / b_bias=0 / direct=3 / weightb=1 / open_gop=0 / weightp=2 / keyint=240 / keyint_min=24 / scenecut=40 / intra_refresh=0 / rc_lookahead=60 / rc=abr / mbtree=1 / bitrate=5200 / ratetol=1.0 / qcomp=0.80 / qpmin=0 / qpmax=69 / qpstep=4 / vbv_maxrate=62500 / vbv_bufsize=78125 / nal_hrd=none / filler=0 / ip_ratio=1.10 / aq=1:0.50
Default : Yes
Forced : No
Color range : Limited
Color primaries : BT.709
Transfer characteristics : BT.709
Matrix coefficients : BT.709
Statistics Tags Issue : mkvmerge v30.1.0 ('Forever And More') 64-bit 2019-01-26 04:55:07 / mkvmerge v30.1.0 ('Forever And More') 64-bit 2019-01-26 04:55:07 / UTC 2019-01-25T13:15:32Z
FromStats_BitRate : 5159583
FromStats_Duration : 01:45:36.000000000
FromStats_FrameCount : 152064
FromStats_StreamSize : 4086390073

Audio #1
ID : 2
Format : AC-3
Format/Info : Audio Coding 3
Codec ID : A_AC3
Duration : 1 h 45 min
Bit rate mode : Constant
Bit rate : 640 kb/s
Channel(s) : 6 channels
Channel positions : Front: L C R, Side: L R, LFE
Sampling rate : 48.0 kHz
Frame rate : 31.250 FPS (1536 SPF)
Bit depth : 16 bits
Compression mode : Lossy
Stream size : 483 MiB (9%)
Title : Latino
Language : Spanish
Service kind : Complete Main
Default : Yes
Forced : No
Statistics Tags Issue : mkvmerge v30.1.0 ('Forever And More') 64-bit 2019-01-26 04:55:07 / mkvmerge v30.1.0 ('Forever And More') 64-bit 2019-01-26 04:55:07 / UTC 2019-01-25T13:15:32Z
FromStats_BitRate : 640000
FromStats_Duration : 01:45:36.000000000
FromStats_FrameCount : 198000
FromStats_StreamSize : 506880000

Audio #2
ID : 3
Format : AC-3
Format/Info : Audio Coding 3
Codec ID : A_AC3
Duration : 1 h 45 min
Bit rate mode : Constant
Bit rate : 640 kb/s
Channel(s) : 6 channels
Channel positions : Front: L C R, Side: L R, LFE
Sampling rate : 48.0 kHz
Frame rate : 31.250 FPS (1536 SPF)
Bit depth : 16 bits
Compression mode : Lossy
Stream size : 483 MiB (9%)
Title : Castellano
Language : Spanish
Service kind : Complete Main
Default : No
Forced : No
Statistics Tags Issue : mkvmerge v30.1.0 ('Forever And More') 64-bit 2019-01-26 04:55:07 / mkvmerge v30.1.0 ('Forever And More') 64-bit 2019-01-26 04:55:07 / UTC 2019-01-25T13:15:32Z
FromStats_BitRate : 640000
FromStats_Duration : 01:45:36.000000000
FromStats_FrameCount : 198000
FromStats_StreamSize : 506880000

Audio #3
ID : 4
Format : AC-3
Format/Info : Audio Coding 3
Codec ID : A_AC3
Duration : 1 h 45 min
Bit rate mode : Constant
Bit rate : 640 kb/s
Channel(s) : 6 channels
Channel positions : Front: L C R, Side: L R, LFE
Sampling rate : 48.0 kHz
Frame rate : 31.250 FPS (1536 SPF)
Bit depth : 16 bits
Compression mode : Lossy
Stream size : 483 MiB (9%)
Title : Ingles
Language : English
Service kind : Complete Main
Default : No
Forced : No
Statistics Tags Issue : mkvmerge v30.1.0 ('Forever And More') 64-bit 2019-01-26 04:55:07 / mkvmerge v30.1.0 ('Forever And More') 64-bit 2019-01-26 04:55:07 / UTC 2019-01-25T13:15:32Z
FromStats_BitRate : 640000
FromStats_Duration : 01:45:36.000000000
FromStats_FrameCount : 198000
FromStats_StreamSize : 506880000

Text #1
ID : 5
Format : UTF-8
Codec ID : S_TEXT/UTF8
Codec ID/Info : UTF-8 Plain Text
Title : Latino SRT
Language : Spanish
Default : Yes
Forced : No
Statistics Tags Issue : mkvmerge v30.1.0 ('Forever And More') 64-bit 2019-01-26 04:55:07 / mkvmerge v30.1.0 ('Forever And More') 64-bit 2019-01-26 04:55:07 / UTC 2019-01-25T13:15:32Z
FromStats_BitRate : 40
FromStats_Duration : 01:38:47.125000000
FromStats_FrameCount : 754
FromStats_StreamSize : 29644

Text #2
ID : 6
Format : UTF-8
Codec ID : S_TEXT/UTF8
Codec ID/Info : UTF-8 Plain Text
Title : Castellano
Language : Spanish
Default : No
Forced : No
Statistics Tags Issue : mkvmerge v30.1.0 ('Forever And More') 64-bit 2019-01-26 04:55:07 / mkvmerge v30.1.0 ('Forever And More') 64-bit 2019-01-26 04:55:07 / UTC 2019-01-25T13:15:32Z
FromStats_BitRate : 37
FromStats_Duration : 01:38:48.341000000
FromStats_FrameCount : 754
FromStats_StreamSize : 28079

Text #3
ID : 7
Format : UTF-8
Codec ID : S_TEXT/UTF8
Codec ID/Info : UTF-8 Plain Text
Title : Ingles SRT
Language : English
Default : No
Forced : No
Statistics Tags Issue : mkvmerge v30.1.0 ('Forever And More') 64-bit 2019-01-26 04:55:07 / mkvmerge v30.1.0 ('Forever And More') 64-bit 2019-01-26 04:55:07 / UTC 2019-01-25T13:15:32Z
FromStats_BitRate : 51
FromStats_Duration : 01:38:47.750000000
FromStats_FrameCount : 985
FromStats_StreamSize : 37955

Text #4
ID : 8
Format : PGS
Muxing mode : zlib
Codec ID : S_HDMV/PGS
Codec ID/Info : Picture based subtitle format used on BDs/HD-DVDs
Title : Latino PGS
Language : Spanish
Default : No
Forced : No
Statistics Tags Issue : mkvmerge v30.1.0 ('Forever And More') 64-bit 2019-01-26 04:55:07 / mkvmerge v30.1.0 ('Forever And More') 64-bit 2019-01-26 04:55:07 / UTC 2019-01-25T13:15:32Z
FromStats_BitRate : 25537
FromStats_Duration : 01:38:48.542000000
FromStats_FrameCount : 2068
FromStats_StreamSize : 18924740

Text #5
ID : 9
Format : PGS
Muxing mode : zlib
Codec ID : S_HDMV/PGS
Codec ID/Info : Picture based subtitle format used on BDs/HD-DVDs
Title : Castellano PGS
Language : Spanish
Default : No
Forced : No
Statistics Tags Issue : mkvmerge v30.1.0 ('Forever And More') 64-bit 2019-01-26 04:55:07 / mkvmerge v30.1.0 ('Forever And More') 64-bit 2019-01-26 04:55:07 / UTC 2019-01-25T13:15:32Z
FromStats_BitRate : 26459
FromStats_Duration : 01:38:47.708000000
FromStats_FrameCount : 1508
FromStats_StreamSize : 19605743

Menu
00:00:00.000 : :Chapter 1
00:08:25.375 : :Chapter 2
00:12:14.292 : :Chapter 3
00:20:27.250 : :Chapter 4
00:29:02.792 : :Chapter 5
00:36:54.917 : :Chapter 6
00:44:50.250 : :Chapter 7
00:54:07.917 : :Chapter 8
01:06:36.792 : :Chapter 9
01:14:30.750 : :Chapter 10
01:22:48.417 : :Chapter 11
01:25:12.000 : :Chapter 12
01:29:49.500 : :Chapter 13
01:36:23.542 : :Chapter 14
01:42:25.167 : :Chapter 15
Complete name : Raw Deal (1986) Trial 720p BRrip.mkv
Format : Matroska
Format version : Version 4 / Version 2
File size : 1.82 GiB
Duration : 1 h 45 min
Overall bit rate : 2 462 kb/s
Movie name : Raw Deal (1986) MiCineHD
Encoded date : UTC 2019-01-26 06:08:17
Writing application : mkvmerge v30.1.0 ('Forever And More') 64-bit
Writing library : libebml v1.3.6 + libmatroska v1.4.9

Video
ID : 1
Format : AVC
Format/Info : Advanced Video Codec
Format profile : High@L4.1
Format settings : CABAC / 4 Ref Frames
Format settings, CABAC : Yes
Format settings, ReFrames : 4 frames
Codec ID : V_MPEG4/ISO/AVC
Duration : 1 h 45 min
Bit rate : 1 500 kb/s
Width : 1 280 pixels
Height : 544 pixels
Display aspect ratio : 2.35:1
Frame rate mode : Constant
Frame rate : 24.000 FPS
Color space : YUV
Chroma subsampling : 4:2:0
Bit depth : 8 bits
Scan type : Progressive
Bits/(Pixel*Frame) : 0.090
Stream size : 1.11 GiB (61%)
Title : Raw Deal (1986) MiCineHD
Writing library : x264 core 152 r2851M ba24899
Encoding settings : cabac=1 / ref=4 / deblock=1:-1:-1 / analyse=0x3:0x113 / me=umh / subme=9 / psy=1 / psy_rd=1.00:0.15 / mixed_ref=1 / me_range=24 / chroma_me=1 / trellis=2 / 8x8dct=1 / cqm=0 / deadzone=21,11 / fast_pskip=1 / chroma_qp_offset=-3 / threads=32 / lookahead_threads=4 / sliced_threads=0 / nr=0 / decimate=1 / interlaced=0 / bluray_compat=0 / constrained_intra=0 / bframes=3 / b_pyramid=2 / b_adapt=2 / b_bias=0 / direct=3 / weightb=1 / open_gop=0 / weightp=2 / keyint=250 / keyint_min=25 / scenecut=40 / intra_refresh=0 / rc_lookahead=50 / rc=2pass / mbtree=1 / bitrate=1500 / ratetol=1.0 / qcomp=0.60 / qpmin=0 / qpmax=69 / qpstep=4 / cplxblur=20.0 / qblur=0.5 / vbv_maxrate=31250 / vbv_bufsize=31250 / nal_hrd=none / filler=0 / ip_ratio=1.40 / aq=3:1.00
Default : Yes
Forced : No

Audio #1
ID : 2
Format : AC-3
Format/Info : Audio Coding 3
Codec ID : A_AC3
Duration : 1 h 45 min
Bit rate mode : Constant
Bit rate : 320 kb/s
Channel(s) : 6 channels
Channel positions : Front: L C R, Side: L R, LFE
Sampling rate : 48.0 kHz
Frame rate : 31.250 FPS (1536 SPF)
Bit depth : 16 bits
Compression mode : Lossy
Stream size : 242 MiB (13%)
Title : Latino
Language : Spanish
Service kind : Complete Main
Default : Yes
Forced : No

Audio #2
ID : 3
Format : AC-3
Format/Info : Audio Coding 3
Codec ID : A_AC3
Duration : 1 h 45 min
Bit rate mode : Constant
Bit rate : 320 kb/s
Channel(s) : 6 channels
Channel positions : Front: L C R, Side: L R, LFE
Sampling rate : 48.0 kHz
Frame rate : 31.250 FPS (1536 SPF)
Bit depth : 16 bits
Compression mode : Lossy
Stream size : 242 MiB (13%)
Title : Castellano
Language : Spanish
Service kind : Complete Main
Default : No
Forced : No

Audio #3
ID : 4
Format : AC-3
Format/Info : Audio Coding 3
Codec ID : A_AC3
Duration : 1 h 45 min
Bit rate mode : Constant
Bit rate : 320 kb/s
Channel(s) : 6 channels
Channel positions : Front: L C R, Side: L R, LFE
Sampling rate : 48.0 kHz
Frame rate : 31.250 FPS (1536 SPF)
Bit depth : 16 bits
Compression mode : Lossy
Stream size : 242 MiB (13%)
Title : Ingles
Language : English
Service kind : Complete Main
Default : No
Forced : No

Text #1
ID : 5
Format : UTF-8
Codec ID : S_TEXT/UTF8
Codec ID/Info : UTF-8 Plain Text
Duration : 1 h 38 min
Bit rate : 40 b/s
Count of elements : 754
Stream size : 28.9 KiB (0%)
Title : Latino
Language : Spanish
Default : Yes
Forced : No

Text #2
ID : 6
Format : UTF-8
Codec ID : S_TEXT/UTF8
Codec ID/Info : UTF-8 Plain Text
Duration : 1 h 38 min
Bit rate : 37 b/s
Count of elements : 754
Stream size : 27.4 KiB (0%)
Title : Castellano
Language : Spanish
Default : No
Forced : No

Text #3
ID : 7
Format : UTF-8
Codec ID : S_TEXT/UTF8
Codec ID/Info : UTF-8 Plain Text
Duration : 1 h 38 min
Bit rate : 51 b/s
Count of elements : 985
Stream size : 37.1 KiB (0%)
Title : Ingles
Language : English
Default : No
Forced : No

Reportar Error Visitas: 142