Links Vip MCHD

Contenido Exclusivo

Hanna (2011) Dual BRrip

Complete name : Hanna (2011) Dual 1080p BRrip.mkv
Format : Matroska
Format version : Version 4 / Version 2
File size : 4.57 GiB
Duration : 1 h 51 min
Overall bit rate : 5 897 kb/s
Movie name : Hanna (2011) MiCineHD
Encoded date : UTC 2019-01-24 03:01:48 / UTC 2019-01-23T15:39:43Z
Writing application : mkvmerge v30.1.0 ('Forever And More') 64-bit
Writing library : libebml v1.3.6 + libmatroska v1.4.9 / Lavf57.7.2

Video
ID : 1
Format : AVC
Format/Info : Advanced Video Codec
Format profile : High@L4.1
Format settings : CABAC / 4 Ref Frames
Format settings, CABAC : Yes
Format settings, ReFrames : 4 frames
Codec ID : V_MPEG4/ISO/AVC
Duration : 1 h 51 min
Bit rate : 4 500 kb/s
Nominal bit rate : 4 825 kb/s
Width : 1 920 pixels
Height : 1 080 pixels
Display aspect ratio : 16:9
Frame rate mode : Constant
Frame rate : 23.976 (24000/1001) FPS
Color space : YUV
Chroma subsampling : 4:2:0
Bit depth : 8 bits
Scan type : Progressive
Bits/(Pixel*Frame) : 0.091
Stream size : 3.49 GiB (76%)
Title : Hanna (2011) MiCineHD
Writing library : x264 core 148 r2708 86b7198
Encoding settings : cabac=1 / ref=4 / deblock=1:-2:-2 / analyse=0x3:0x133 / me=esa / subme=10 / psy=1 / psy_rd=1.00:0.25 / mixed_ref=1 / me_range=24 / chroma_me=1 / trellis=2 / 8x8dct=1 / cqm=0 / deadzone=6,6 / fast_pskip=1 / chroma_qp_offset=-4 / threads=12 / lookahead_threads=2 / sliced_threads=0 / nr=0 / decimate=0 / interlaced=0 / bluray_compat=0 / constrained_intra=0 / bframes=8 / b_pyramid=2 / b_adapt=2 / b_bias=0 / direct=3 / weightb=1 / open_gop=0 / weightp=2 / keyint=240 / keyint_min=24 / scenecut=40 / intra_refresh=0 / rc_lookahead=60 / rc=abr / mbtree=1 / bitrate=4825 / ratetol=1.0 / qcomp=0.80 / qpmin=0 / qpmax=69 / qpstep=4 / vbv_maxrate=62500 / vbv_bufsize=78125 / nal_hrd=none / filler=0 / ip_ratio=1.10 / aq=1:0.50
Default : Yes
Forced : No
Color range : Limited
Color primaries : BT.709
Transfer characteristics : BT.709
Matrix coefficients : BT.709
Statistics Tags Issue : mkvmerge v30.1.0 ('Forever And More') 64-bit 2019-01-24 03:01:48 / mkvmerge v30.1.0 ('Forever And More') 64-bit 2019-01-24 03:01:48 / UTC 2019-01-23T15:39:43Z
FromStats_BitRate : 4602400
FromStats_Duration : 01:51:02.072000000
FromStats_FrameCount : 159730
FromStats_StreamSize : 3832690779

Audio #1
ID : 2
Format : AC-3
Format/Info : Audio Coding 3
Codec ID : A_AC3
Duration : 1 h 51 min
Bit rate mode : Constant
Bit rate : 640 kb/s
Channel(s) : 6 channels
Channel positions : Front: L C R, Side: L R, LFE
Sampling rate : 48.0 kHz
Frame rate : 31.250 FPS (1536 SPF)
Bit depth : 16 bits
Compression mode : Lossy
Stream size : 508 MiB (11%)
Title : Latino
Language : Spanish
Service kind : Complete Main
Default : Yes
Forced : No
Statistics Tags Issue : mkvmerge v30.1.0 ('Forever And More') 64-bit 2019-01-24 03:01:48 / mkvmerge v30.1.0 ('Forever And More') 64-bit 2019-01-24 03:01:48 / UTC 2019-01-23T15:39:43Z
FromStats_BitRate : 640000
FromStats_Duration : 01:51:02.080000000
FromStats_FrameCount : 208190
FromStats_StreamSize : 532966400

Audio #2
ID : 3
Format : AC-3
Format/Info : Audio Coding 3
Codec ID : A_AC3
Duration : 1 h 51 min
Bit rate mode : Constant
Bit rate : 640 kb/s
Channel(s) : 6 channels
Channel positions : Front: L C R, Side: L R, LFE
Sampling rate : 48.0 kHz
Frame rate : 31.250 FPS (1536 SPF)
Bit depth : 16 bits
Compression mode : Lossy
Stream size : 508 MiB (11%)
Title : Ingles
Language : English
Service kind : Complete Main
Default : No
Forced : No
Statistics Tags Issue : mkvmerge v30.1.0 ('Forever And More') 64-bit 2019-01-24 03:01:48 / mkvmerge v30.1.0 ('Forever And More') 64-bit 2019-01-24 03:01:48 / UTC 2019-01-23T15:39:43Z
FromStats_BitRate : 640000
FromStats_Duration : 01:51:02.080000000
FromStats_FrameCount : 208190
FromStats_StreamSize : 532966400

Text #1
ID : 4
Format : UTF-8
Codec ID : S_TEXT/UTF8
Codec ID/Info : UTF-8 Plain Text
Title : Forzados SRT
Language : Spanish
Default : Yes
Forced : No
Statistics Tags Issue : mkvmerge v30.1.0 ('Forever And More') 64-bit 2019-01-24 03:01:48 / mkvmerge v30.1.0 ('Forever And More') 64-bit 2019-01-24 03:01:48 / UTC 2019-01-23T15:39:43Z
FromStats_BitRate : 0
FromStats_Duration : 01:24:13.423000000
FromStats_FrameCount : 6
FromStats_StreamSize : 214

Text #2
ID : 5
Format : UTF-8
Codec ID : S_TEXT/UTF8
Codec ID/Info : UTF-8 Plain Text
Title : Latino SRT
Language : Spanish
Default : No
Forced : No
Statistics Tags Issue : mkvmerge v30.1.0 ('Forever And More') 64-bit 2019-01-24 03:01:48 / mkvmerge v30.1.0 ('Forever And More') 64-bit 2019-01-24 03:01:48 / UTC 2019-01-23T15:39:43Z
FromStats_BitRate : 29
FromStats_Duration : 01:45:55.223000000
FromStats_FrameCount : 850
FromStats_StreamSize : 23447

Text #3
ID : 6
Format : UTF-8
Codec ID : S_TEXT/UTF8
Codec ID/Info : UTF-8 Plain Text
Title : Ingles SRT
Language : English
Default : No
Forced : No
Statistics Tags Issue : mkvmerge v30.1.0 ('Forever And More') 64-bit 2019-01-24 03:01:48 / mkvmerge v30.1.0 ('Forever And More') 64-bit 2019-01-24 03:01:48 / UTC 2019-01-23T15:39:43Z
FromStats_BitRate : 31
FromStats_Duration : 01:45:48.490000000
FromStats_FrameCount : 883
FromStats_StreamSize : 24826

Text #4
ID : 7
Format : PGS
Muxing mode : zlib
Codec ID : S_HDMV/PGS
Codec ID/Info : Picture based subtitle format used on BDs/HD-DVDs
Title : Forzados PGS
Language : Spanish
Default : No
Forced : No
Statistics Tags Issue : mkvmerge v30.1.0 ('Forever And More') 64-bit 2019-01-24 03:01:48 / mkvmerge v30.1.0 ('Forever And More') 64-bit 2019-01-24 03:01:48 / UTC 2019-01-23T15:39:43Z
FromStats_BitRate : 245
FromStats_Duration : 01:24:13.424000000
FromStats_FrameCount : 14
FromStats_StreamSize : 155144

Text #5
ID : 8
Format : PGS
Muxing mode : zlib
Codec ID : S_HDMV/PGS
Codec ID/Info : Picture based subtitle format used on BDs/HD-DVDs
Title : Latino PGS
Language : Spanish
Default : No
Forced : No
Statistics Tags Issue : mkvmerge v30.1.0 ('Forever And More') 64-bit 2019-01-24 03:01:48 / mkvmerge v30.1.0 ('Forever And More') 64-bit 2019-01-24 03:01:48 / UTC 2019-01-23T15:39:43Z
FromStats_BitRate : 18935
FromStats_Duration : 01:45:55.224000000
FromStats_FrameCount : 1716
FromStats_StreamSize : 15042554

Text #6
ID : 9
Format : PGS
Muxing mode : zlib
Codec ID : S_HDMV/PGS
Codec ID/Info : Picture based subtitle format used on BDs/HD-DVDs
Title : Ingles PGS
Language : English
Default : No
Forced : No
Statistics Tags Issue : mkvmerge v30.1.0 ('Forever And More') 64-bit 2019-01-24 03:01:48 / mkvmerge v30.1.0 ('Forever And More') 64-bit 2019-01-24 03:01:48 / UTC 2019-01-23T15:39:43Z
FromStats_BitRate : 21278
FromStats_Duration : 01:49:37.613000000
FromStats_FrameCount : 1916
FromStats_StreamSize : 17495396

Menu
00:00:00.000 : :Chapter 1
00:05:21.947 : :Chapter 2
00:10:54.487 : :Chapter 3
00:15:08.825 : :Chapter 4
00:19:59.990 : :Chapter 5
00:24:30.678 : :Chapter 6
00:30:07.556 : :Chapter 7
00:35:18.199 : :Chapter 8
00:41:34.534 : :Chapter 9
00:46:17.108 : :Chapter 10
00:50:06.170 : :Chapter 11
00:55:35.916 : :Chapter 12
01:00:43.390 : :Chapter 13
01:04:27.739 : :Chapter 14
01:11:47.762 : :Chapter 15
01:19:58.711 : :Chapter 16
01:24:50.711 : :Chapter 17
01:29:35.161 : :Chapter 18
01:36:45.842 : :Chapter 19
01:43:25.199 : :Chapter 20
Complete name : Hanna (2011) Dual 720p BRrip.mkv
Format : Matroska
Format version : Version 4 / Version 2
File size : 2.16 GiB
Duration : 1 h 51 min
Overall bit rate : 2 782 kb/s
Movie name : Hanna (2011) MiCineHD
Encoded date : UTC 2019-01-24 03:04:38
Writing application : mkvmerge v30.1.0 ('Forever And More') 64-bit
Writing library : libebml v1.3.6 + libmatroska v1.4.9

Video
ID : 1
Format : AVC
Format/Info : Advanced Video Codec
Format profile : High@L4.1
Format settings : CABAC / 4 Ref Frames
Format settings, CABAC : Yes
Format settings, ReFrames : 4 frames
Codec ID : V_MPEG4/ISO/AVC
Duration : 1 h 51 min
Bit rate : 1 500 kb/s
Width : 1 280 pixels
Height : 534 pixels
Display aspect ratio : 2.40:1
Original display aspect rat : 2.40:1
Frame rate mode : Constant
Frame rate : 23.976 (23976/1000) FPS
Color space : YUV
Chroma subsampling : 4:2:0
Bit depth : 8 bits
Scan type : Progressive
Bits/(Pixel*Frame) : 0.092
Stream size : 1.16 GiB (54%)
Title : Hanna (2011) MiCineHD
Writing library : x264 core 152 r2851M ba24899
Encoding settings : cabac=1 / ref=4 / deblock=1:-1:-1 / analyse=0x3:0x113 / me=umh / subme=9 / psy=1 / psy_rd=1.00:0.15 / mixed_ref=1 / me_range=24 / chroma_me=1 / trellis=2 / 8x8dct=1 / cqm=0 / deadzone=21,11 / fast_pskip=1 / chroma_qp_offset=-3 / threads=32 / lookahead_threads=4 / sliced_threads=0 / nr=0 / decimate=1 / interlaced=0 / bluray_compat=0 / constrained_intra=0 / bframes=3 / b_pyramid=2 / b_adapt=2 / b_bias=0 / direct=3 / weightb=1 / open_gop=0 / weightp=2 / keyint=250 / keyint_min=25 / scenecut=40 / intra_refresh=0 / rc_lookahead=50 / rc=2pass / mbtree=1 / bitrate=1500 / ratetol=1.0 / qcomp=0.60 / qpmin=0 / qpmax=69 / qpstep=4 / cplxblur=20.0 / qblur=0.5 / vbv_maxrate=31250 / vbv_bufsize=31250 / nal_hrd=none / filler=0 / ip_ratio=1.40 / aq=3:1.00
Default : Yes
Forced : No

Audio #1
ID : 2
Format : AC-3
Format/Info : Audio Coding 3
Codec ID : A_AC3
Duration : 1 h 51 min
Bit rate mode : Constant
Bit rate : 640 kb/s
Channel(s) : 6 channels
Channel positions : Front: L C R, Side: L R, LFE
Sampling rate : 48.0 kHz
Frame rate : 31.250 FPS (1536 SPF)
Bit depth : 16 bits
Compression mode : Lossy
Stream size : 508 MiB (23%)
Language : Spanish
Service kind : Complete Main
Default : Yes
Forced : No

Audio #2
ID : 3
Format : AC-3
Format/Info : Audio Coding 3
Codec ID : A_AC3
Duration : 1 h 51 min
Bit rate mode : Constant
Bit rate : 640 kb/s
Channel(s) : 6 channels
Channel positions : Front: L C R, Side: L R, LFE
Sampling rate : 48.0 kHz
Frame rate : 31.250 FPS (1536 SPF)
Bit depth : 16 bits
Compression mode : Lossy
Stream size : 508 MiB (23%)
Language : English
Service kind : Complete Main
Default : No
Forced : No

Text #1
ID : 4
Format : UTF-8
Codec ID : S_TEXT/UTF8
Codec ID/Info : UTF-8 Plain Text
Duration : 1 h 24 min
Bit rate : 0 b/s
Count of elements : 6
Stream size : 214 Bytes (0%)
Title : Forzados
Language : Spanish
Default : Yes
Forced : No

Text #2
ID : 5
Format : UTF-8
Codec ID : S_TEXT/UTF8
Codec ID/Info : UTF-8 Plain Text
Duration : 1 h 45 min
Bit rate : 29 b/s
Count of elements : 850
Stream size : 22.9 KiB (0%)
Language : Spanish
Default : No
Forced : No

Text #3
ID : 6
Format : UTF-8
Codec ID : S_TEXT/UTF8
Codec ID/Info : UTF-8 Plain Text
Duration : 1 h 45 min
Bit rate : 31 b/s
Count of elements : 883
Stream size : 24.2 KiB (0%)
Language : English
Default : No
Forced : No

Reportar Error Visitas: 38